Welcome Guest ( Log In | Register )

> Releases Upload / Добавление релизов

Добавить релиз тут / Click here to add release
Рекомендованные обменники / Recommended file shares

 
Reply to this topicStart new topic
> Extreme Attack - Hellbangers [ep] (2018), Old School Thrash Metal
post Jun 28 2020, 16:35:06
Post #1

Правь статус, ####!111
**************
Group: Металариец
Posts: 22,263
Releases: 15411
From: Г.Харьков
On Forums: 8 years 1 month
Thanks: 281796 time(s)
Unknown


(IMG:https://metalarea.org/images/audiocovers/2020_Jun/acov_tid339409_thumb.jpg)

*Artist: Extreme Attack
*Album: Hellbangers [ep]
*Year: 2018
*Genre: Old School Thrash Metal
*Country: Ecuador (IMG:https://metalarea.org/forum/style_images/flags/Ecuador.png)
*Format: mp3@CBR320kbps
*Size: 33MB

Tracklist:
1. Intro 01:14 instrumental
2. Hellbangers 03:46
3. Extreme Attack 03:49
4. Slaughter 03:10
******************************
Total playing time: 11:59




Extended info
Patricio Viveros Bass, Vocals (2011-present)
See also: ex-Metal Slave
Renata Pacheco Guitars (lead) (2011-present)
See also: ex-Metal Slave
Edwin Floyd Drums (2018-present)
See also: Cadaverous Smell, Narcosis, ex-Lynx Lyd


Technical info
(IMG:https://metalarea.org/images/spectrogram/2020_Jun/71f67c34f40ed9cf177a97b81ed615b5.png)
Input File: 02 Hellbangers.mp3
Channels : 2
Sample Rate : 44100
Precision : 16-bit
Duration : 00:03:46.13 = 9972245 samples = 16959.6 CDDA sectors
File Size : 10.1M
Bit Rate : 358k
Sample Encoding: MPEG audio (layer I, II or III)
Comments :
Title=Hellbangers
Artist=Extreme Attack
Album=Hellbangers
Tracknumber=2/4
Year=2018-20-20
Genre=Metal
Discnumber=1/1



Register


Go to the top of the page
  Insert nick Quick quote
+Quote Post

Reply to this topicStart new topic
2 User(s) are reading this topic (2 Guests and 0 Anonymous Users)
0 Members:

 



- Lo-Fi Version Support form
Copyrights and abuse reports form
Time is now: 6th July 2020 - 02:15:36