Welcome Guest ( Log In | Register )

> Releases Upload / Добавление релизов

Добавить релиз тут / Click here to add release
Рекомендованные обменники / Recommended file shares

 
Reply to this topicStart new topic
> Extreme Attack - Assassin [ep] (2011), Old School Thrash Metal
post Jun 28 2020, 16:58:02
Post #1

Правь статус, ####!111
**************
Group: Металариец
Posts: 22,266
Releases: 15420
From: Г.Харьков
On Forums: 8 years 1 month
Thanks: 281823 time(s)
Unknown


(IMG:https://metalarea.org/images/audiocovers/2020_Jun/acov_tid339411_thumb.jpg)

*Artist: Extreme Attack
*Album: Assassin [ep]
*Year: 2011
*Genre: Old School Thrash Metal
*Country: Ecuador (IMG:https://metalarea.org/forum/style_images/flags/Ecuador.png)
*Format: mp3@CBR320kbps
*Size: 30MB

Tracklist:
1. Assassin 04:06
2. Hell's Priests 04:42
3. Hell Is Your Destiny 04:06
******************************
Total playing time: 12:54




Extended info
Patricio Viveros Bass, Vocals (2011-present)
See also: ex-Metal Slave
Renata Pacheco Guitars (lead) (2011-present)
See also: ex-Metal Slave
Edwin Floyd Drums (2018-present)
See also: Cadaverous Smell, Narcosis, ex-Lynx Lyd


Technical info
(IMG:https://metalarea.org/images/spectrogram/2020_Jun/e59f88acd570e7d7ef87edc4e762ef04.png)
Input File: 02 Hell\'s Priests.mp3
Channels : 2
Sample Rate : 44100
Precision : 16-bit
Duration : 00:04:42.71 = 12467599 samples = 21203.4 CDDA sectors
File Size : 11.5M
Bit Rate : 325k
Sample Encoding: MPEG audio (layer I, II or III)
Comments :
Title=Hell's Priests
Artist=Extreme Attack
Album=Assassin
Tracknumber=2/3
Year=2011-18-20
Genre=Metal
Discnumber=1/1



Register


Go to the top of the page
  Insert nick Quick quote
+Quote Post

Reply to this topicStart new topic
2 User(s) are reading this topic (2 Guests and 0 Anonymous Users)
0 Members:

 



- Lo-Fi Version Support form
Copyrights and abuse reports form
Time is now: 6th July 2020 - 04:12:28