Welcome Guest ( Log In | Register )

> Releases Upload / Добавление релизов

Добавить релиз тут / Click here to add release
Рекомендованные обменники / Recommended file shares

 
Reply to this topicStart new topic
> Thou - Blessings Of The Highest Order [compilation] (2020), Sludge/Doom Metal/Post-Grunge (D)
post Jun 28 2020, 17:24:54
Post #1

Мастер волшебного кнута
**************
Group: Металариец
Posts: 3,876
Releases: 3587
From: Кронштадт, Санкт-Петербург
On Forums: 12 years 8 months
Thanks: 22004 time(s)
Russian Federation


(IMG:https://metalarea.org/images/audiocovers/2020_Jun/acov_tid339412_thumb.png)

*Artist: Thou
*Album: Blessings Of The Highest Order [compilation]
*Year: 2020
*Genre: Sludge/Doom Metal/Post-Grunge
*Country: United States (IMG:https://metalarea.org/forum/style_images/flags/United%20States.png)
*Format: mp3@CBR320kbps
*Size: 177MB

Tracklist:
01. Blew 04:41
02. School 02:30
03. Stain 03:00
04. In Bloom 04:50
05. Territorial Pissings 02:29
06. Scentless Apprentice 04:46
07. Aneurysm 04:23
08. Floyd the Barber 03:04
09. Sifting 06:10
10. Milk It 03:59
11. I Hate Myself And I Want To Die 04:03
12. Dive 04:25
13. Even in His Youth 03:13
14. Endless, Nameless 07:05
15. Something In the Way 05:02
16. Where Did You Sleep Last Night 08:56
******************************
Total playing time: 1:12:36


(IMG:https://metalarea.org/images/myspace.png)

Extended info
A compilation of all of the Nirvana covers we've released over the years. Thanks always to Kurdt, Kirst, Dave, Pat, and even Courtney.
Мне очень понравились эти ковера на Nirvana


Technical info
(IMG:https://metalarea.org/images/spectrogram/2020_Jun/b56d09dd7efa1cc3f19c8efbb370ea16.png)
Input File: 01 Blew.mp3
Channels : 2
Sample Rate : 44100
Precision : 16-bit
Duration : 00:04:41.28 = 12404228 samples = 21095.6 CDDA sectors
File Size : 11.5M
Bit Rate : 327k
Sample Encoding: MPEG audio (layer I, II or III)
Comments :
Title=Blew
Artist=Thou
Album=Blessings of the Highest Order
Tracknumber=1
Year=2020
Genre=Sludge/Doom Metal/Post-Grunge



Register


Go to the top of the page
  Insert nick Quick quote
+Quote Post

Reply to this topicStart new topic
2 User(s) are reading this topic (2 Guests and 0 Anonymous Users)
0 Members:

 



- Lo-Fi Version Support form
Copyrights and abuse reports form
Time is now: 6th July 2020 - 03:03:29