Welcome Guest ( Log In | Register )

> Releases Upload / Добавление релизов

Добавить релиз тут / Click here to add release
Рекомендованные обменники / Recommended file shares

 
Reply to this topicStart new topic
> Noumenon - Ego Nothingness Lust (2020), Black Metal
post Jun 28 2020, 17:40:48
Post #1

Мастер волшебного кнута
**************
Group: Металариец
Posts: 3,863
Releases: 3574
From: Кронштадт, Санкт-Петербург
On Forums: 12 years 8 months
Thanks: 21904 time(s)
Russian Federation


(IMG:https://metalarea.org/images/audiocovers/2020_Jun/acov_tid339413_thumb.jpg)

*Artist: Noumenon
*Album: Ego Nothingness Lust
*Year: 2020
*Genre: Black Metal
*Country: Turkey (IMG:https://metalarea.org/forum/style_images/flags/Turkey.png)
*Format: mp3@CBR320kbps
*Size: 102MB

Tracklist:
01. Fading Away 07:57
02. Malefic Being 07:11
03. Painting Of Insolence 09:09
04. The Fuits Of Lust Garden 06:45
05. The Facts Of Being Ignoble 06:27
06. Between The Curse And Doubt 06:32
******************************
Total playing time: 44:01



Technical info
(IMG:https://metalarea.org/images/spectrogram/2020_Jun/2f7f3dd0342a2f906eaf2e3aa7c6da53.png)
Input File: 01 Fading Away.mp3
Channels : 2
Sample Rate : 44100
Precision : 16-bit
Duration : 00:07:57.91 = 21075831 samples = 35843.2 CDDA sectors
File Size : 19.2M
Bit Rate : 322k
Sample Encoding: MPEG audio (layer I, II or III)
Comments :
Title=Fading Away
Artist=Noumenon
Album=Ego Nothingness Lust
Tracknumber=1
Year=2020
Genre=Black Metal



Register


Go to the top of the page
  Insert nick Quick quote
+Quote Post

Reply to this topicStart new topic
2 User(s) are reading this topic (2 Guests and 0 Anonymous Users)
0 Members:

 



- Lo-Fi Version Support form
Copyrights and abuse reports form
Time is now: 3rd July 2020 - 14:19:02