Welcome Guest ( Log In | Register )

> Releases Upload / Добавление релизов

Добавить релиз тут / Click here to add release
Рекомендованные обменники / Recommended file shares

> Patriarch - Rehearsal Demo [demo] (2020), Black Metal
post Jun 28 2020, 17:46:41
Post #1

Мастер волшебного кнута
**************
Group: Металариец
Posts: 3,876
Releases: 3587
From: Кронштадт, Санкт-Петербург
On Forums: 12 years 8 months
Thanks: 22004 time(s)
Russian Federation


(IMG:https://metalarea.org/images/audiocovers/2020_Jun/acov_tid339414_thumb.jpg)

*Artist: Patriarch
*Album: Rehearsal Demo [demo]
*Year: 2020
*Genre: Black Metal
*Country: United States (IMG:https://metalarea.org/forum/style_images/flags/United%20States.png)
*Format: mp3@CBR320kbps
*Size: 64MB

Tracklist:
01. I 06:46
02. II 04:27
03. III 06:46
04. IV 04:34
05. Psilocybin Instrumental 04:09
******************************
Total playing time: 26:42



(IMG:https://metalarea.org/images/youtube.png)

Technical info
(IMG:https://metalarea.org/images/spectrogram/2020_Jun/8de5ee39c8512f5db1dc7bf7e506cf37.png)
Input File: 01 I.mp3
Channels : 2
Sample Rate : 44100
Precision : 16-bit
Duration : 00:06:46.17 = 17912273 samples = 30463 CDDA sectors
File Size : 16.4M
Bit Rate : 323k
Sample Encoding: MPEG audio (layer I, II or III)
Comments :
Title=I
Artist=Patriarch
Album=Rehearsal Demo
Tracknumber=1
Year=2020
Genre=Black Metal



Register


Go to the top of the page
  Insert nick Quick quote
+Quote Post
 
Start new topic
Replies (1 - 2)
post Jun 29 2020, 20:24:58
Post #2

melofags sniper
**************
Group: Металариец
Posts: 5,149
Releases: 0
From: Одеса
On Forums: 12 years 4 months
Thanks: 4000 time(s)
Ukraine


(IMG:https://f4.bcbits.com/img/a2933322320_10.jpg)

Вот и все.


Thanks:
(1) biroutios,
Go to the top of the page
  Insert nick Quick quote
+Quote Post
post Jul 3 2020, 20:20:44
Post #3

Семь Литров
*******
Group: Металариец
Posts: 717
Releases: 0
On Forums: 6 years 11 months
Thanks: 520 time(s)
Australia


QUOTE(babanguida @ Jun 29 2020, 21:24:58) *

Yolo
Go to the top of the page
  Insert nick Quick quote
+Quote Post

Reply to this topicStart new topic
2 User(s) are reading this topic (2 Guests and 0 Anonymous Users)
0 Members:

 



- Lo-Fi Version Support form
Copyrights and abuse reports form
Time is now: 6th July 2020 - 03:17:09