Welcome Guest ( Log In | Register )

> Releases Upload / Добавление релизов

Добавить релиз тут / Click here to add release
Рекомендованные обменники / Recommended file shares

 
Reply to this topicStart new topic
> Profits Of Doom - Watch It Burn [ep] (2020), Groove/Thrash Metal
post Jun 28 2020, 17:51:51
Post #1

Мастер волшебного кнута
**************
Group: Металариец
Posts: 3,876
Releases: 3587
From: Кронштадт, Санкт-Петербург
On Forums: 12 years 8 months
Thanks: 22020 time(s)
Russian Federation


(IMG:https://metalarea.org/images/audiocovers/2020_Jun/acov_tid339415_thumb.jpg)

*Artist: Profits Of Doom
*Album: Watch It Burn [ep]
*Year: 2020
*Genre: Groove/Thrash Metal
*Country: United States (IMG:https://metalarea.org/forum/style_images/flags/United%20States.png)
*Format: mp3@CBR320kbps
*Size: 41MB

Tracklist:
01. Watch It Burn 04:37
02. Slicing Jaws 04:17
03. Pressure Spike 03:50
04. Mandatory (Slayer *$) 03:55
******************************
Total playing time: 16:39




Technical info
(IMG:https://metalarea.org/images/spectrogram/2020_Jun/d63de32ebb9e12673fb27dcef3f57578.png)
Input File: 01 Watch it Burn.mp3
Channels : 2
Sample Rate : 44100
Precision : 16-bit
Duration : 00:04:37.17 = 12223373 samples = 20788 CDDA sectors
File Size : 11.3M
Bit Rate : 326k
Sample Encoding: MPEG audio (layer I, II or III)
Comments :
Title=Watch it Burn
Artist=Profits Of Doom
Album=Watch It Burn (EP)
Tracknumber=1
Year=2020
Genre=Groove/Thrash Metal



Register


Go to the top of the page
  Insert nick Quick quote
+Quote Post

Reply to this topicStart new topic
2 User(s) are reading this topic (2 Guests and 0 Anonymous Users)
0 Members:

 



- Lo-Fi Version Support form
Copyrights and abuse reports form
Time is now: 6th July 2020 - 10:12:32