Welcome Guest ( Log In | Register )

> Releases Upload / Добавление релизов

Добавить релиз тут / Click here to add release
Рекомендованные обменники / Recommended file shares

 
Reply to this topicStart new topic
> Druma - Druma [ep] (2020), Atmospheric Black/Post-Metal
post Jun 28 2020, 17:57:07
Post #1

Мастер волшебного кнута
**************
Group: Металариец
Posts: 3,876
Releases: 3587
From: Кронштадт, Санкт-Петербург
On Forums: 12 years 8 months
Thanks: 22020 time(s)
Russian Federation


(IMG:https://metalarea.org/images/audiocovers/2020_Jun/acov_tid339416_thumb.jpg)

*Artist: Druma
*Album: Druma [ep]
*Year: 2020
*Genre: Atmospheric Black/Post-Metal
*Country: Germany (IMG:https://metalarea.org/forum/style_images/flags/Germany.png)
*Format: mp3@CBR320kbps
*Size: 73MB

Tracklist:
01. This Mournfulness 06:49
02. Lifelong 09:25
03. Puppets 04:23
04. Reverence 10:50
******************************
Total playing time: 31:27




Technical info
(IMG:https://metalarea.org/images/spectrogram/2020_Jun/831ee2d82833a27f3d10f9f31303e641.png)
Input File: 01 This Mournfulness.mp3
Channels : 2
Sample Rate : 44100
Precision : 16-bit
Duration : 00:06:49.86 = 18074694 samples = 30739.3 CDDA sectors
File Size : 16.5M
Bit Rate : 321k
Sample Encoding: MPEG audio (layer I, II or III)
Comments :
Title=This Mournfulness
Artist=Druma
Album=Druma (EP)
Tracknumber=1
Year=2020
Genre=Atmospheric Black/Post-Metal



Register


Go to the top of the page
  Insert nick Quick quote
+Quote Post

Reply to this topicStart new topic
1 User(s) are reading this topic (1 Guests and 0 Anonymous Users)
0 Members:

 



- Lo-Fi Version Support form
Copyrights and abuse reports form
Time is now: 6th July 2020 - 08:48:12