Welcome Guest ( Log In | Register )

> Releases Upload / Добавление релизов

Добавить релиз тут / Click here to add release
Рекомендованные обменники / Recommended file shares

 
Reply to this topicStart new topic
> Rale - 2020 Demo [demo] (2020), Death Metal
post Jun 28 2020, 18:00:56
Post #1

Мастер волшебного кнута
**************
Group: Металариец
Posts: 3,863
Releases: 3574
From: Кронштадт, Санкт-Петербург
On Forums: 12 years 8 months
Thanks: 21904 time(s)
Russian Federation


(IMG:https://metalarea.org/images/audiocovers/2020_Jun/acov_tid339417_thumb.jpg)

*Artist: Rale
*Album: 2020 Demo [demo]
*Year: 2020
*Genre: Death Metal
*Country: United States (IMG:https://metalarea.org/forum/style_images/flags/United%20States.png)
*Format: mp3@CBR320kbps
*Size: 54MB

Tracklist:
01. Abhorrent Belligerence 03:27
02. Memory Pulverized 05:12
03. Torment Afterbirth 07:03
04. Heaven's Gate 05:58
******************************
Total playing time: 21:40



Technical info
(IMG:https://metalarea.org/images/spectrogram/2020_Jun/1bb06819ed23fe09d221415d65a66bbd.png)
Input File: 01 Abhorrent Belligerence.mp3
Channels : 2
Sample Rate : 44100
Precision : 16-bit
Duration : 00:03:27.95 = 9170419 samples = 15596 CDDA sectors
File Size : 8.56M
Bit Rate : 329k
Sample Encoding: MPEG audio (layer I, II or III)
Comments :
Title=Abhorrent Belligerence
Artist=Rale
Album=2020 Demo
Tracknumber=1
Year=2020
Genre=22



Register


Go to the top of the page
  Insert nick Quick quote
+Quote Post

Reply to this topicStart new topic
1 User(s) are reading this topic (1 Guests and 0 Anonymous Users)
0 Members:

 



- Lo-Fi Version Support form
Copyrights and abuse reports form
Time is now: 3rd July 2020 - 14:53:06