Welcome Guest ( Log In | Register )

> Releases Upload / Добавление релизов

Добавить релиз тут / Click here to add release
Рекомендованные обменники / Recommended file shares

 
Reply to this topicStart new topic
> Bemangled - Laceration Revelation [ep] (2020), Brutal Death Metal
post Jun 28 2020, 18:05:17
Post #1

Мастер волшебного кнута
**************
Group: Металариец
Posts: 3,876
Releases: 3587
From: Кронштадт, Санкт-Петербург
On Forums: 12 years 8 months
Thanks: 22020 time(s)
Russian Federation


(IMG:https://metalarea.org/images/audiocovers/2020_Jun/acov_tid339418_thumb.jpeg)

*Artist: Bemangled
*Album: Laceration Revelation [ep]
*Year: 2020
*Genre: Brutal Death Metal
*Country: United States (IMG:https://metalarea.org/forum/style_images/flags/United%20States.png)
*Format: mp3@CBR320kbps
*Size: 56MB

Tracklist:
01. Idols Of Iron 04:18
02. Entrails To A Shrine 04:34
03. Laceration Revelation 04:14
04. Annelid 03:47
05. Mural Of Death 04:15
******************************
Total playing time: 21:08




Technical info
(IMG:https://metalarea.org/images/spectrogram/2020_Jun/c23e3a4ff17d06102c5ba43889c56504.png)
Input File: 01 Idols of Iron.mp3
Channels : 2
Sample Rate : 44100
Precision : 16-bit
Duration : 00:04:18.05 = 11380049 samples = 19353.8 CDDA sectors
File Size : 10.4M
Bit Rate : 323k
Sample Encoding: MPEG audio (layer I, II or III)
Comments :
Title=Idols of Iron
Artist=Bemangled
Album=Laceration Revelation
Tracknumber=1
Year=2020
Genre=Brutal Death Metal



Register


Go to the top of the page
  Insert nick Quick quote
+Quote Post

Reply to this topicStart new topic
1 User(s) are reading this topic (1 Guests and 0 Anonymous Users)
0 Members:

 



- Lo-Fi Version Support form
Copyrights and abuse reports form
Time is now: 6th July 2020 - 09:15:33