Welcome Guest ( Log In | Register )

> Releases Upload / Добавление релизов

Добавить релиз тут / Click here to add release
Рекомендованные обменники / Recommended file shares

 
Reply to this topicStart new topic
> Carnal Desecration - Carnal Desecration [ep] (2020), Black/Death Metal
post Jun 28 2020, 18:09:59
Post #1

Мастер волшебного кнута
**************
Group: Металариец
Posts: 3,876
Releases: 3585
From: Кронштадт, Санкт-Петербург
On Forums: 12 years 8 months
Thanks: 22003 time(s)
Russian Federation


(IMG:https://metalarea.org/images/audiocovers/2020_Jun/acov_tid339419_thumb.jpg)

*Artist: Carnal Desecration
*Album: Carnal Desecration [ep]
*Year: 2020
*Genre: Black/Death Metal
*Country: Belgium (IMG:https://metalarea.org/forum/style_images/flags/Belgium.png)
*Format: mp3@CBR320kbps
*Size: 29MB

Tracklist:
01. Rites Of The Necromancer 03:44
02. Maschalismos 03:32
03. Carnal Desecration 04:44
******************************
Total playing time: 12:00




Technical info
(IMG:https://metalarea.org/images/spectrogram/2020_Jun/63cee7a5ddeb78da86956948b02ca265.png)
Input File: 01 Rites Of The Necromancer.mp3
Channels : 2
Sample Rate : 44100
Precision : 16-bit
Duration : 00:03:44.33 = 9892733 samples = 16824.4 CDDA sectors
File Size : 9.13M
Bit Rate : 326k
Sample Encoding: MPEG audio (layer I, II or III)
Comments :
Title=Rites Of The Necromancer
Artist=Carnal Desecration
Album=Carnal Desecration (EP)
Tracknumber=1
Year=2020
Genre=Black/Death Metal



Register


Go to the top of the page
  Insert nick Quick quote
+Quote Post

Reply to this topicStart new topic
2 User(s) are reading this topic (2 Guests and 0 Anonymous Users)
0 Members:

 



- Lo-Fi Version Support form
Copyrights and abuse reports form
Time is now: 6th July 2020 - 02:41:58