Welcome Guest ( Log In | Register )

> Releases Upload / Добавление релизов

Добавить релиз тут / Click here to add release
Рекомендованные обменники / Recommended file shares

 
Reply to this topicStart new topic
> Kannustaa - Kannustaa (2020), Black Metal
post Jun 28 2020, 18:14:42
Post #1

Мастер волшебного кнута
**************
Group: Металариец
Posts: 3,876
Releases: 3587
From: Кронштадт, Санкт-Петербург
On Forums: 12 years 8 months
Thanks: 22004 time(s)
Russian Federation


(IMG:https://metalarea.org/images/audiocovers/2020_Jun/acov_tid339420_thumb.jpg)

*Artist: Kannustaa
*Album: Kannustaa
*Year: 2020
*Genre: Black Metal
*Country: International (IMG:https://metalarea.org/forum/style_images/flags/International.png)
*Format: mp3@CBR320kbps
*Size: 70MB

Tracklist:
01. To Give And Forget 04:15
02. Mother 04:22
03. Shadows In The Sky 03:21
04. Don't Leave Me 05:22
05. A Plea For Solitude 06:57
06. Encourage 06:10
******************************
Total playing time: 30:27




Extended info
Serbia / United States


Technical info
(IMG:https://metalarea.org/images/spectrogram/2020_Jun/ecd0fa123f57221ee9ec2dca913cbab4.png)
Input File: 01 To Give and Forget.mp3
Channels : 2
Sample Rate : 44100
Precision : 16-bit
Duration : 00:04:15.91 = 11285587 samples = 19193.2 CDDA sectors
File Size : 10.3M
Bit Rate : 321k
Sample Encoding: MPEG audio (layer I, II or III)
Comments :
Title=To Give and Forget
Artist=Kannustaa
Album=Kannustaa
Tracknumber=1
Year=2020
Genre=Black Metal



Register


Go to the top of the page
  Insert nick Quick quote
+Quote Post

Reply to this topicStart new topic
2 User(s) are reading this topic (2 Guests and 0 Anonymous Users)
0 Members:

 



- Lo-Fi Version Support form
Copyrights and abuse reports form
Time is now: 6th July 2020 - 03:12:32