Welcome Guest ( Log In | Register )

> Releases Upload / Добавление релизов

Добавить релиз тут / Click here to add release
Рекомендованные обменники / Recommended file shares

> Hatebound - Shades Of Madness (2020), Groove/Death Metal
post Jun 28 2020, 18:19:17
Post #1

Мастер волшебного кнута
**************
Group: Металариец
Posts: 3,876
Releases: 3587
From: Кронштадт, Санкт-Петербург
On Forums: 12 years 8 months
Thanks: 22009 time(s)
Russian Federation


(IMG:https://metalarea.org/images/audiocovers/2020_Jun/acov_tid339421_thumb.jpg)

*Artist: Hatebound
*Album: Shades Of Madness
*Year: 2020
*Genre: Groove/Death Metal
*Country: Russian Federation (IMG:https://metalarea.org/forum/style_images/flags/Russian%20Federation.png)
*Format: mp3@CBR320kbps
*Size: 106MB

Tracklist:
01. Black Sacrament 04:26
02. Price Of Truth 05:15
03. Old Scars 06:13
04. Holy Visions 04:40
05. Pain Dealer 04:37
06. Into The Abyss 05:15
07. Triumph Of Chaos 03:55
08. Forgotten Land 05:25
09. Winds 04:45
******************************
Total playing time: 44:31


Preview 2

Technical info
(IMG:https://metalarea.org/images/spectrogram/2020_Jun/7c2da475a90c78bf6a829884ba6b011d.png)
Input File: 01 Black Sacrament.mp3
Channels : 2
Sample Rate : 44100
Precision : 16-bit
Duration : 00:04:26.83 = 11767159 samples = 20012.2 CDDA sectors
File Size : 10.8M
Bit Rate : 325k
Sample Encoding: MPEG audio (layer I, II or III)
Comments :
Title=Black Sacrament
Artist=Hatebound
Album=Shades Of Madness
Tracknumber=1
Year=2020
Genre=Groove/Death Metal



Register


Go to the top of the page
  Insert nick Quick quote
+Quote Post
 
Start new topic
Replies (1 - 1)
post Jun 29 2020, 19:35:28
Post #2

Литр
*
Group: Подсевший
Posts: 53
Releases: 0
On Forums: 10 years 2 months
Thanks: 9 time(s)
Colombia


Great, thanx (IMG:style_emoticons/default/9.gif)
Go to the top of the page
  Insert nick Quick quote
+Quote Post

Reply to this topicStart new topic
2 User(s) are reading this topic (2 Guests and 0 Anonymous Users)
0 Members:

 



- Lo-Fi Version Support form
Copyrights and abuse reports form
Time is now: 6th July 2020 - 04:41:22