Welcome Guest ( Log In | Register )

> Releases Upload / Добавление релизов

Добавить релиз тут / Click here to add release
Рекомендованные обменники / Recommended file shares

> Demólatra - Mayo 54 (2018), Thrash Metal
post Jun 28 2020, 19:10:52
Post #1

Правь статус, ####!111
**************
Group: Металариец
Posts: 22,266
Releases: 15420
From: Г.Харьков
On Forums: 8 years 1 month
Thanks: 281852 time(s)
Unknown


(IMG:https://metalarea.org/images/audiocovers/2020_Jun/acov_tid339422_thumb.jpg)

*Artist: Demólatra
*Album: Mayo 54
*Year: 2018
*Genre: Thrash Metal
*Country: Honduras (IMG:https://metalarea.org/forum/style_images/flags/Honduras.png)
*Format: mp3@CBR320kbps
*Size: 76MB

Tracklist:
1. Corporaciòn muerte
2. Condenados al olvido
3. Bastardos
4. Ojos vendados
5. Defendiendo democracias
6. La bestia
7. Mayo 54
******************************
Total playing time: 31:40



Extended info
Willians Merino Bass
Kevin Sánchez Guitars (2012-present)
See also: All for Blood (live), Exequias
Carlos Silva Vocals (lead) (2012-present)
Josué Mancía Drums (2014-present)


Technical info
(IMG:https://metalarea.org/images/spectrogram/2020_Jun/4bf2d6c7b39cea9c7d8190031b776ec3.png)
Input File: 04 Ojos Vendados.mp3
Channels : 2
Sample Rate : 44100
Precision : 16-bit
Duration : 00:04:36.91 = 12211863 samples = 20768.5 CDDA sectors
File Size : 11.6M
Bit Rate : 334k
Sample Encoding: MPEG audio (layer I, II or III)
Comments :
Title=Ojos Vendados
Artist=Demólatra
Album=Mayo 54
Tracknumber=4/7
Year=2018-20-20
Genre=Metal
Discnumber=1/1



Register


Go to the top of the page
  Insert nick Quick quote
+Quote Post
 
Start new topic
Replies (1 - 1)
post Jun 29 2020, 19:37:11
Post #2

Литр
*
Group: Подсевший
Posts: 53
Releases: 0
On Forums: 10 years 2 months
Thanks: 9 time(s)
Colombia


Gracias por el aporte ! (IMG:style_emoticons/default/9.gif)


Go to the top of the page
  Insert nick Quick quote
+Quote Post

Reply to this topicStart new topic
1 User(s) are reading this topic (1 Guests and 0 Anonymous Users)
0 Members:

 



- Lo-Fi Version Support form
Copyrights and abuse reports form
Time is now: 6th July 2020 - 08:41:10