Welcome Guest ( Log In | Register )

 
Reply to this topicStart new topic
> Sanatorium - Live In Hungary [live] (1993), Thrash/Speed Metal (D)
post Jun 29 2020, 07:58:45
Post #1

Join my religion, or die
**************
Group: Металариец
Posts: 10,727
Releases: 1528
From: Питера
On Forums: 10 years 9 months
Thanks: 19813 time(s)
Russian Federation


(IMG:https://metalarea.org/images/audiocovers/2020_Jun/acov_tid339424_thumb.jpg)

*Artist: Sanatorium
*Album: Live In Hungary [live]
*Year: 1993
*Genre: Thrash/Speed Metal
*Country: Macedonia (IMG:https://metalarea.org/forum/style_images/flags/Macedonia.png)
*Format: mp3@CBR320kbps
*Size: 50MB

Tracklist:
01. Senka Na Smrtta
02. Despot Na Adot
03. Bez Razum I Svest
04. Epidemija Na Omrazata
05. Operacija Na Mozokot
******************************
Total playing time: 22:55

Extended info
Весьма рекомендую. Знатно нарезают.
Не смотря на графики вполне слушабельно...



Technical info
(IMG:https://metalarea.org/images/spectrogram/2020_Jun/a1f586b853c5088ef2b41759d68a1243.png)
Input File: 01 Senka Na Smrtta.mp3
Channels : 2
Sample Rate : 32000
Precision : 16-bit
Duration : 00:03:25.17 = 6565344 samples ~ 15387.5 CDDA sectors
File Size : 8.25M
Bit Rate : 322k
Sample Encoding: MPEG audio (layer I, II or III)
Comments :
Title=Senka Na Smrtta
Artist=Sanatorium
Album=1993 Live in Hungary
Tracknumber=01/05
Year=1993
Genre=Thrash Metal



Register


Go to the top of the page
  Insert nick Quick quote
+Quote Post

Reply to this topicStart new topic
2 User(s) are reading this topic (2 Guests and 0 Anonymous Users)
0 Members:

 



- Lo-Fi Version Support form
Copyrights and abuse reports form
Time is now: 6th July 2020 - 09:05:40