Welcome Guest ( Log In | Register )

> Releases Upload / Добавление релизов

Добавить релиз тут / Click here to add release
Рекомендованные обменники / Recommended file shares

 
Reply to this topicStart new topic
> Sanatorium - Limited Single Edition [ep] (2015), Thrash/Speed Metal (D)
post Jun 29 2020, 08:09:33
Post #1

Join my religion, or die
**************
Group: Металариец
Posts: 10,727
Releases: 1528
From: Питера
On Forums: 10 years 9 months
Thanks: 19813 time(s)
Russian Federation


(IMG:https://metalarea.org/images/audiocovers/2020_Jun/acov_tid339425_thumb.jpg)

*Artist: Sanatorium
*Album: Limited Single Edition [ep]
*Year: 2015
*Genre: Thrash/Speed Metal
*Country: Macedonia (IMG:https://metalarea.org/forum/style_images/flags/Macedonia.png)
*Format: mp3@CBR320kbps
*Size: 26MB

Tracklist:
01. Молк
02. Kажи "НЕ"
03. Moлитва
******************************
Total playing time: 11:16

Preview 1

Extended info
После почти 20 летнего молчания ребята выдали шикарную ЕРишку!





Technical info
(IMG:https://metalarea.org/images/spectrogram/2020_Jun/4da1884543f9cc8de426f8dfd7a74e21.png)
Input File: 01 Molk.mp3
Channels : 2
Sample Rate : 32000
Precision : 16-bit
Duration : 00:04:14.20 = 8134368 samples ~ 19064.9 CDDA sectors
File Size : 10.3M
Bit Rate : 324k
Sample Encoding: MPEG audio (layer I, II or III)
Comments :
Title=Molk
Artist=Sanatorium
Album=2015 Limited Single Edition
Tracknumber=01/03
Year=2015
Genre=Thrash Metal



Register


Go to the top of the page
  Insert nick Quick quote
+Quote Post

Reply to this topicStart new topic
2 User(s) are reading this topic (2 Guests and 0 Anonymous Users)
0 Members:

 



- Lo-Fi Version Support form
Copyrights and abuse reports form
Time is now: 6th July 2020 - 02:36:18