Welcome Guest ( Log In | Register )

> Releases Upload / Добавление релизов

Добавить релиз тут / Click here to add release
Рекомендованные обменники / Recommended file shares

> Chugun - Rogue Planet (2020), Thrash/Death Metal
post Jun 29 2020, 12:14:03
Post #1

Правь статус, ####!111
**************
Group: Металариец
Posts: 22,266
Releases: 15420
From: Г.Харьков
On Forums: 8 years 1 month
Thanks: 281796 time(s)
Unknown


(IMG:https://metalarea.org/images/audiocovers/2020_Jun/acov_tid339426_thumb.jpg)

*Artist: Chugun
*Album: Rogue Planet
*Year: 2020
*Genre: Thrash/Death Metal
*Country: Israel (IMG:https://metalarea.org/forum/style_images/flags/Israel.png)
*Format: mp3@CBR320kbps
*Size: 72MB

Tracklist:
1. Simulacra
2. Predatory Prey
3. Happiness
4. Idiot's Guide
5. Rogue Planet
6. Extinction Cycle
7. Andromeda
8. Gravitational Collapse
******************************
Total playing time: 31:15




Extended info
Alexey Hobbit Saprikin Bass
Timur Sizov Guitars
Denise Jani Vocals
Nir Baruch Drums (2016-present)
See also: Sensorium, Sintax, ex-The Knell


Technical info
(IMG:https://metalarea.org/images/spectrogram/2020_Jun/df5f743dc3ee6c4fe27afbb62acb0ebf.png)
Input File: 02 - Predatory Prey.mp3
Channels : 2
Sample Rate : 44100
Precision : 16-bit
Duration : 00:04:12.07 = 11116375 samples = 18905.4 CDDA sectors
File Size : 10.2M
Bit Rate : 322k
Sample Encoding: MPEG audio (layer I, II or III)
Comments :
Title=Predatory Prey
Artist=Chugun
Album=Rogue Planet
Tracknumber=02
Year=2020
Genre=Death / Thrash Metal
Discnumber=1



Register


Go to the top of the page
  Insert nick Quick quote
+Quote Post
 
Start new topic
Replies (1 - 1)
post Jul 1 2020, 17:40:03
Post #2

brutalcesar
**************
Group: Металариец
Posts: 17,950
Releases: 67
From: Рязань
On Forums: 11 years 5 months
Thanks: 9810 time(s)
Russian Federation


Недурно...
Go to the top of the page
  Insert nick Quick quote
+Quote Post

Reply to this topicStart new topic
1 User(s) are reading this topic (1 Guests and 0 Anonymous Users)
0 Members:

 



- Lo-Fi Version Support form
Copyrights and abuse reports form
Time is now: 6th July 2020 - 02:48:11