Welcome Guest ( Log In | Register )

> Releases Upload / Добавление релизов

Добавить релиз тут / Click here to add release
Рекомендованные обменники / Recommended file shares

 
Reply to this topicStart new topic
> Forced Rejection - Relinquished [single] (2020), Southern/Groove Metal
post Jun 29 2020, 13:04:54
Post #1

Serial Uploader
Group Icon
Group: V.I.P
Posts: 37,203
Releases: 35386
From: Lithuania
On Forums: 12 years 4 weeks
Thanks: 421183 time(s)
Lithuania


(IMG:https://metalarea.org/images/audiocovers/2020_Jun/acov_tid339427_thumb.jpg)

*Artist: Forced Rejection
*Album: Relinquished [single]
*Year: 2020
*Genre: Southern/Groove Metal
*Country: Spain (IMG:https://metalarea.org/forum/style_images/flags/Spain.png)
*Format: mp3@CBR320kbps
*Size: 46MB

Tracklist:
01. Relinquished (Pre-Release Version) 04:53
02. The Storm (live) 03:45
03. Stoned Devil Blues (live) 04:36
04. Made of Pride (live) 06:40
******************************
Total playing time: 19:54




(IMG:https://metalarea.org/images/youtube.png)

Technical info
(IMG:https://metalarea.org/images/spectrogram/2020_Jun/82b2b2143e7d540e1056d55143adc52d.png)
Input File: 02. The Storm (Live).mp3
Channels : 2
Sample Rate : 44100
Precision : 16-bit
Duration : 00:03:45.08 = 9926160 samples = 16881.2 CDDA sectors
File Size : 9.07M
Bit Rate : 322k
Sample Encoding: MPEG audio (layer I, II or III)
Comments :
Title=The Storm (Live)
Artist=Forced Rejection
Album=Relinquished (Single)
Tracknumber=2
Year=2020



Register


Go to the top of the page
  Insert nick Quick quote
+Quote Post

Reply to this topicStart new topic
2 User(s) are reading this topic (2 Guests and 0 Anonymous Users)
0 Members:

 



- Lo-Fi Version Support form
Copyrights and abuse reports form
Time is now: 6th July 2020 - 02:57:06