Welcome Guest ( Log In | Register )

> Releases Upload / Добавление релизов

Добавить релиз тут / Click here to add release
Рекомендованные обменники / Recommended file shares

> Inhaling Cold - Фаталист (2020), Industrial/Melodic Black/Death Metal
post Jun 29 2020, 13:13:32
Post #1

Правь статус, ####!111
**************
Group: Металариец
Posts: 22,266
Releases: 15420
From: Г.Харьков
On Forums: 8 years 1 month
Thanks: 281796 time(s)
Unknown


(IMG:https://metalarea.org/images/audiocovers/2020_Jun/acov_tid339428_thumb.jpg)

*Artist: Inhaling Cold
*Album: Фаталист
*Year: 2020
*Genre: Industrial/Melodic Black/Death Metal
*Country: Russian Federation (IMG:https://metalarea.org/forum/style_images/flags/Russian%20Federation.png)
*Format: mp3@CBR320kbps
*Size: 80MB

Tracklist:
1. Бесконечность сводящая с ума 05:23
2. Ключ от последней двери 05:41
3. Антарктос 03:44
4. Полярис 03:14
5. Фаталист 04:44
6. Звездный ужас 03:49
7. Среди звезд 06:26
******************************
Total playing time: 33:01

Preview 1

Extended info
Бурдин Денис
Прокопьев Фёдор
Овчинников Артём



Technical info
(IMG:https://metalarea.org/images/spectrogram/2020_Jun/e61bddf7873c1664bfc998769e58094c.png)
Input File: 02 Ключ от последней двери.mp3
Channels : 2
Sample Rate : 44100
Precision : 16-bit
Duration : 00:05:41.13 = 15043613 samples = 25584.4 CDDA sectors
File Size : 14.2M
Bit Rate : 333k
Sample Encoding: MPEG audio (layer I, II or III)
Comments :
Title=Ключ от последней двери
Artist=Inhaling Cold
Album=Фаталист
Tracknumber=2/7
Year=2020-20-20
Genre=Metal
Discnumber=1/1



Register


Go to the top of the page
  Insert nick Quick quote
+Quote Post
 
Start new topic
Replies (1 - 3)
post Jul 2 2020, 07:47:31
Post #2

Ъ
**************
Group: Металариец
Posts: 10,140
Releases: 9
On Forums: 11 years 5 months
Thanks: 2037 time(s)
Sweden


Третьесорт.
Go to the top of the page
  Insert nick Quick quote
+Quote Post
post Jul 2 2020, 12:35:17
Post #3

Правь статус, ####!111
**************
Group: Металариец
Posts: 22,266
Releases: 15420
From: Г.Харьков
On Forums: 8 years 1 month
Thanks: 281796 time(s)
Unknown


ЦИТАТА(DenisKov @ 2nd July 2020 - 07:47:31) *
Третьесорт

Никто в тебе и не сомневался! (IMG:style_emoticons/default/15.gif)
Go to the top of the page
  Insert nick Quick quote
+Quote Post
post Jul 2 2020, 12:42:46
Post #4

Правь статус, ####!111
**************
Group: Металариец
Posts: 46,731
Releases: 730
On Forums: 11 years 1 month
Thanks: 39386 time(s)
Russian Federation


Люблю, когда Самаритянин подбамбливает (IMG:style_emoticons/default/1488.gif)
Go to the top of the page
  Insert nick Quick quote
+Quote Post

Reply to this topicStart new topic
1 User(s) are reading this topic (1 Guests and 0 Anonymous Users)
0 Members:

 



- Lo-Fi Version Support form
Copyrights and abuse reports form
Time is now: 6th July 2020 - 02:59:41