Welcome Guest ( Log In | Register )

> Releases Upload / Добавление релизов

Добавить релиз тут / Click here to add release
Рекомендованные обменники / Recommended file shares

 
Reply to this topicStart new topic
> Asenheim - Asenheim (2012), Black/Pagan Metal (D)
post Jun 29 2020, 13:20:48
Post #1

Serial Uploader
Group Icon
Group: V.I.P
Posts: 37,203
Releases: 35386
From: Lithuania
On Forums: 12 years 4 weeks
Thanks: 421183 time(s)
Lithuania


(IMG:https://metalarea.org/images/audiocovers/2020_Jun/acov_tid339429_thumb.jpg)

*Artist: Asenheim
*Album: Asenheim
*Year: 2012
*Genre: Black/Pagan Metal
*Country: Germany (IMG:https://metalarea.org/forum/style_images/flags/Germany.png)
*Format: mp3@CBR320kbps
*Size: 72MB

Tracklist:
01. Ritt durch den Runenwald 03:43
02. Das Tal der Winde 06:09
03. Der Winterkönig 05:45
04. Der Thron aus Eis 05:58
05. Drachenblut 09:47
******************************
Total playing time: 31:22

(IMG:https://metalarea.org/images/myspace.png)



Technical info
(IMG:https://metalarea.org/images/spectrogram/2020_Jun/e5ce9554678bbc11b190b64b85ea502d.png)
Input File: 02. Das Tal Der Winde.mp3
Channels : 2
Sample Rate : 44100
Precision : 16-bit
Duration : 00:06:09.11 = 16277619 samples = 27683 CDDA sectors
File Size : 15.0M
Bit Rate : 325k
Sample Encoding: MPEG audio (layer I, II or III)
Comments :
Title=Das Tal Der Winde
Artist=Asenheim
Album=Asenheim
Tracknumber=02
Year=2012



Register


Go to the top of the page
  Insert nick Quick quote
+Quote Post

Reply to this topicStart new topic
1 User(s) are reading this topic (1 Guests and 0 Anonymous Users)
0 Members:

 



- Lo-Fi Version Support form
Copyrights and abuse reports form
Time is now: 6th July 2020 - 04:26:02