Welcome Guest ( Log In | Register )

> Releases Upload / Добавление релизов

Добавить релиз тут / Click here to add release
Рекомендованные обменники / Recommended file shares

> Bofo Kwo - Space/Time Carnivorium (2020), Symphonic Black Metal
post Jun 29 2020, 15:25:09
Post #1

Правь статус, ####!111
**************
Group: Металариец
Posts: 22,266
Releases: 15420
From: Г.Харьков
On Forums: 8 years 1 month
Thanks: 281856 time(s)
Unknown


(IMG:https://metalarea.org/images/audiocovers/2020_Jun/acov_tid339430_thumb.jpg)

*Artist: Bofo Kwo
*Album: Space/Time Carnivorium
*Year: 2020
*Genre: Symphonic Black Metal
*Country: Finland (IMG:https://metalarea.org/forum/style_images/flags/Finland.png)
*Format: mp3@CBR320kbps
*Size: 101MB

Tracklist:
1. Plate of Hate 06:47
2. Second Sun 05:19
3. Epic 08:30
4. New Destination 04:48
5. Green Leviathan 05:36
6. Bullets of Despair 06:08
7. The Massacre 07:28
******************************
Total playing time: 44:36




Extended info
Wamufo Guitars (lead) (2014-present)
Bomari Vocals (2014-present)
Bofo Kwo Vocals (2014-present)


Technical info
(IMG:https://metalarea.org/images/spectrogram/2020_Jun/5ac8ff09cf425e10af18122db3f5f1dc.png)
Input File: 02 - Second Sun.mp3
Channels : 2
Sample Rate : 44100
Precision : 16-bit
Duration : 00:05:19.01 = 14068253 samples = 23925.6 CDDA sectors
File Size : 12.8M
Bit Rate : 320k
Sample Encoding: MPEG audio (layer I, II or III)
Comments :
Title=Second Sun
Artist=Bofo Kwo
Album=Space/Time Carnivorium
Tracknumber=2
Year=2020
Genre=Metal



Register


Go to the top of the page
  Insert nick Quick quote
+Quote Post
 
Start new topic
Replies (1 - 2)
post Jun 30 2020, 15:03:33
Post #2

Маньяк
**********
Group: Металариец
Posts: 1,361
Releases: 3
From: Новороссия
On Forums: 14 years 4 months
Thanks: 756 time(s)
Russian Federation


Какой-то prog-jazz-chaotic black.
Go to the top of the page
  Insert nick Quick quote
+Quote Post
post Jul 1 2020, 05:59:18
Post #3

hearer & reader
**************
Group: Металариец
Posts: 8,797
Releases: 144
From: Moscow
On Forums: 12 years 9 months
Thanks: 8954 time(s)
Russian Federation


https://music.yandex.ru/album/10168558
Go to the top of the page
  Insert nick Quick quote
+Quote Post

Reply to this topicStart new topic
1 User(s) are reading this topic (1 Guests and 0 Anonymous Users)
0 Members:

 



- Lo-Fi Version Support form
Copyrights and abuse reports form
Time is now: 6th July 2020 - 09:00:15