Welcome Guest ( Log In | Register )

> Releases Upload / Добавление релизов

Добавить релиз тут / Click here to add release
Рекомендованные обменники / Recommended file shares

 
Reply to this topicStart new topic
> Valravne - Valravne (2020), Black Metal
post Jun 29 2020, 17:56:36
Post #1

Правь статус, ####!111
**************
Group: Металариец
Posts: 22,266
Releases: 15420
From: Г.Харьков
On Forums: 8 years 1 month
Thanks: 281823 time(s)
Unknown


(IMG:https://metalarea.org/images/audiocovers/2020_Jun/acov_tid339432_thumb.jpg)

*Artist: Valravne
*Album: Valravne
*Year: 2020
*Genre: Black Metal
*Country: United States (IMG:https://metalarea.org/forum/style_images/flags/United%20States.png)
*Format: mp3@CBR320kbps
*Size: 70MB

Tracklist:
1. Satanas Est Caritas 03:36
2. I Must Die 05:00
3. Aokigahara 07:20
4. Taken on the Sun 07:40
5. Nero 03:50
6. Extinction pt. 1 03:18
******************************
Total playing time: 30:44




Extended info
Valravne Everything


Technical info
(IMG:https://metalarea.org/images/spectrogram/2020_Jun/693912835fd012e6575af119755198df.png)
Input File: Valravne - Valravne - 03 Aokigahara.mp3
Channels : 2
Sample Rate : 44100
Precision : 16-bit
Duration : 00:07:20.14 = 19409954 samples = 33010.1 CDDA sectors
File Size : 17.7M
Bit Rate : 321k
Sample Encoding: MPEG audio (layer I, II or III)
Comments :
Title=Aokigahara
Artist=Valravne
Album=Valravne
Tracknumber=3
Year=2020



Register


Go to the top of the page
  Insert nick Quick quote
+Quote Post

Reply to this topicStart new topic
2 User(s) are reading this topic (2 Guests and 0 Anonymous Users)
0 Members:

 



- Lo-Fi Version Support form
Copyrights and abuse reports form
Time is now: 6th July 2020 - 03:57:27