Welcome Guest ( Log In | Register )

> Releases Upload / Добавление релизов

Добавить релиз тут / Click here to add release
Рекомендованные обменники / Recommended file shares

 
Reply to this topicStart new topic
> Valravne - Some Kind Of Vampire [ep] (2020), Black Metal
post Jun 29 2020, 18:13:27
Post #1

Правь статус, ####!111
**************
Group: Металариец
Posts: 22,266
Releases: 15420
From: Г.Харьков
On Forums: 8 years 1 month
Thanks: 281796 time(s)
Unknown


(IMG:https://metalarea.org/images/audiocovers/2020_Jun/acov_tid339433_thumb.jpg)

*Artist: Valravne
*Album: Some Kind Of Vampire [ep]
*Year: 2020
*Genre: Black Metal
*Country: United States (IMG:https://metalarea.org/forum/style_images/flags/United%20States.png)
*Format: mp3@CBR320kbps
*Size: 33MB

Tracklist:
1. Contempt for All Humankind 03:59
2. Some Kind of Vampire 03:18
3. Vada in My Ecafe 04:01
4. Taylor Mountain 03:06
******************************
Total playing time: 14:24




Extended info
Valravne Everything


Technical info
(IMG:https://metalarea.org/images/spectrogram/2020_Jun/6a30b6c4742a48894d324a97303f2e88.png)
Input File: Valravne - Some Kind of Vampire - 03 Vada in my Ecafe.mp3
Channels : 2
Sample Rate : 44100
Precision : 16-bit
Duration : 00:04:01.52 = 10650812 samples = 18113.6 CDDA sectors
File Size : 9.76M
Bit Rate : 323k
Sample Encoding: MPEG audio (layer I, II or III)
Comments :
Title=Vada in my Ecafe
Artist=Valravne
Album=Some Kind of Vampire
Tracknumber=3
Year=2020



Register


Go to the top of the page
  Insert nick Quick quote
+Quote Post

Reply to this topicStart new topic
3 User(s) are reading this topic (3 Guests and 0 Anonymous Users)
0 Members:

 



- Lo-Fi Version Support form
Copyrights and abuse reports form
Time is now: 6th July 2020 - 02:51:47