Welcome Guest ( Log In | Register )

> Releases Upload / Добавление релизов

Добавить релиз тут / Click here to add release
Рекомендованные обменники / Recommended file shares

> Enshadowed - Stare Into The Abyss (2020), Black Metal (D)
post Jun 29 2020, 22:52:39
Post #1

Правь статус, ####!111
**************
Group: Металариец
Posts: 4,509
Releases: 1266
From: Brazil
On Forums: 8 years 5 months
Thanks: 47418 time(s)
Brazil


(IMG:http://metalarea.org/images/audiocovers/2020_Jun/acov_tid339435_thumb.jpg)

*Artist: Enshadowed
*Album: Stare Into The Abyss
*Year: 2020
*Genre: Black Metal
*Country: Greece (IMG:http://metalarea.org/forum/style_images/flags/Greece.png)
*Format: mp3@CBR320kbps
*Size: 82MB

Tracklist:
1. An Aspect of Chaos 04:47
2. The Great Animist 03:56
3. Beyond the Knowledge of Truth 05:06
4. Blackend Mouth of Despair 05:36
5. Divided You Fall 05:01
6. A Form of Agony 05:05
7. Entropy of Men 05:29
******************************
Total playing time: 35:00



Extended info
Odium Records


Technical info
(IMG:http://metalarea.org/images/spectrogram/2020_Jun/5d7e68eae23f004add89bc92db328ce0.png)
Input File: 02 The Great Animist.mp3
Channels : 2
Sample Rate : 44100
Precision : 16-bit
Duration : 00:03:56.08 = 10411172 samples = 17706.1 CDDA sectors
File Size : 9.44M
Bit Rate : 320k
Sample Encoding: MPEG audio (layer I, II or III)
Comments :
Title=The Great Animist
Artist=Enshadowed
Album=Stare into the Abyss
Tracknumber=2
Year=2020



Register


Go to the top of the page
  Insert nick Quick quote
+Quote Post
 
Start new topic
Replies (1 - 3)
post Jul 1 2020, 05:47:53
Post #2

Правь статус, ####!111
**************
Group: Металариец
Posts: 4,509
Releases: 1266
From: Brazil
On Forums: 8 years 5 months
Thanks: 47418 time(s)
Brazil


Register

mp3@CBR320kbps


Thanks:
Go to the top of the page
  Insert nick Quick quote
+Quote Post
post Jul 1 2020, 06:30:53
Post #3

Три Литра
***
Group: Завсегдатай
Posts: 243
Releases: 0
From: Vilnius
On Forums: 13 years 4 months
Thanks: 62 time(s)
Lithuania


Спасибо,-слушается весьма приятственно
Go to the top of the page
  Insert nick Quick quote
+Quote Post
post Jul 3 2020, 18:33:36
Post #4

Четыре Литра
****
Group: Металариец
Posts: 310
Releases: 6
On Forums: 11 years 9 months
Thanks: 283 time(s)
Unknown


Очень крутой релиз, во всех планах. Материал, вокалы, звук. Однозначно возьму сд, так как к альбому хочется возвращаться снова и снова.

Местами напомнило Funeral Mist (IMG:style_emoticons/default/20.gif)
Go to the top of the page
  Insert nick Quick quote
+Quote Post

Reply to this topicStart new topic
2 User(s) are reading this topic (2 Guests and 0 Anonymous Users)
0 Members:

 



- Lo-Fi Version Support form
Copyrights and abuse reports form
Time is now: 6th July 2020 - 03:04:24