Welcome Guest ( Log In | Register )

> Releases Upload / Добавление релизов

Добавить релиз тут / Click here to add release
Рекомендованные обменники / Recommended file shares

 
Reply to this topicStart new topic
> Athanatheos - Prophetic Era (Or How Yahveh Became The One) (2020), Blackened Death Metal
post Jun 30 2020, 09:28:24
Post #1

Правь статус, ####!111
**************
Group: Металариец
Posts: 22,266
Releases: 15420
From: Г.Харьков
On Forums: 8 years 1 month
Thanks: 281823 time(s)
Unknown


(IMG:https://metalarea.org/images/audiocovers/2020_Jun/acov_tid339440_thumb.jpg)

*Artist: Athanatheos
*Album: Prophetic Era (Or How Yahveh Became The One)
*Year: 2020
*Genre: Blackened Death Metal
*Country: France (IMG:https://metalarea.org/forum/style_images/flags/France.png)
*Format: mp3@CBR320kbps
*Size: 111MB

Tracklist:
1. Samaria 10:42
2. One Against All 04:14
3. Jerusalem (The Exile to Babylon) 06:33
4. Paradigms 03:40
5. (R)evolution, Revelation 05:25
6. You Shall Not Be 04:15
7. There Was No Soul, There Is Death, There Shall Never Be a Life Beyond (Soul Injected Part III) 13:44
******************************
Total playing time: 48:33




Extended info
Aurélien Guerriau Guitars
Samuel Girard Vocals, Keyboards, FX
Nicolas Lebreton Bass
Grégory Pein Drums


Technical info
(IMG:https://metalarea.org/images/spectrogram/2020_Jun/b6554ffb9b8559f7b2136cf9e7ea508f.png)
Input File: 03. Jerusalem (The Exile to Babylon).mp3
Channels : 2
Sample Rate : 44100
Precision : 16-bit
Duration : 00:06:33.83 = 17367947 samples = 29537.3 CDDA sectors
File Size : 15.8M
Bit Rate : 320k
Sample Encoding: MPEG audio (layer I, II or III)
Comments :
Title=Jerusalem (The Exile to Babylon)
Artist=AthanaTheos
Album=Prophetic Era (or How Yahveh Became the One)
Tracknumber=3
Year=2020



Register


Go to the top of the page
  Insert nick Quick quote
+Quote Post

Reply to this topicStart new topic
2 User(s) are reading this topic (2 Guests and 0 Anonymous Users)
0 Members:

 



- Lo-Fi Version Support form
Copyrights and abuse reports form
Time is now: 6th July 2020 - 04:09:54