Welcome Guest ( Log In | Register )

> Releases Upload / Добавление релизов

Добавить релиз тут / Click here to add release
Рекомендованные обменники / Recommended file shares

> Fleshdriver - Leech [demo] (2020), Old School Death Metal
post Jun 30 2020, 09:49:46
Post #1

Правь статус, ####!111
**************
Group: Металариец
Posts: 22,266
Releases: 15420
From: Г.Харьков
On Forums: 8 years 1 month
Thanks: 281796 time(s)
Unknown


(IMG:https://metalarea.org/images/audiocovers/2020_Jun/acov_tid339441_thumb.jpg)

*Artist: Fleshdriver
*Album: Leech [demo]
*Year: 2020
*Genre: Old School Death Metal
*Country: United States (IMG:https://metalarea.org/forum/style_images/flags/United%20States.png)
*Format: mp3@CBR320kbps
*Size: 35MB

Tracklist:
1. Leech 02:11
2. Soul Thirst 03:40
3. Kingdom of Rats 03:19
4. Morte Agitur 03:10
5. The Golden Calf 02:15
******************************
Total playing time: 14:35




Extended info
Quinn Riley Drums
See also: Gripper
Tyler Denslow Vocals, Guitars
See also: Saul, Age of Misery


Technical info
(IMG:https://metalarea.org/images/spectrogram/2020_Jun/e9359e609b946d47037374e6d1bf874c.png)
Input File: Fleshdriver - Leech - 02 Soul Thirst.mp3
Channels : 2
Sample Rate : 44100
Precision : 16-bit
Duration : 00:03:40.12 = 9707248 samples = 16508.9 CDDA sectors
File Size : 8.99M
Bit Rate : 327k
Sample Encoding: MPEG audio (layer I, II or III)
Comments :
Title=Soul Thirst
Artist=Fleshdriver
Album=Leech
Tracknumber=2
Year=2020



Register


Go to the top of the page
  Insert nick Quick quote
+Quote Post
 
Start new topic
Replies (1 - 3)
post Jun 30 2020, 18:16:26
Post #2

Маньяк
**********
Group: Металариец
Posts: 1,059
Releases: 268
From: Ukraine
On Forums: 11 years 3 months
Thanks: 2311 time(s)
Ukraine


Какая-то неторопливая шведятина.
Go to the top of the page
  Insert nick Quick quote
+Quote Post
post Jun 30 2020, 22:18:21
Post #3

Crush The Enemies
**************
Group: Металариец
Posts: 4,290
Releases: 0
From: Moscow
On Forums: 10 years 10 months
Thanks: 2633 time(s)
Russian Federation



Всего двое чуваков и танцуют и поют - но как сразу ВКУСНО чувствуется игра ЖИВОГО БАРАБАНЩИКА!!! (IMG:style_emoticons/default/9.gif)

P.S Флоридские пацанчики намутили ШВЕДООБРАЗНО-ОЛДСКУЛЬНУЮ хрень весьма грамотно!!! (IMG:style_emoticons/default/metaler.gif) (IMG:style_emoticons/default/metaler.gif) (IMG:style_emoticons/default/metaler.gif)


Go to the top of the page
  Insert nick Quick quote
+Quote Post
post Jul 1 2020, 08:00:35
Post #4

Два Литра
**
Group: Завсегдатай
Posts: 174
Releases: 0
On Forums: 2 years 6 months
Thanks: 31 time(s)
Unknown


This is good fun, thanks!


Go to the top of the page
  Insert nick Quick quote
+Quote Post

Reply to this topicStart new topic
2 User(s) are reading this topic (2 Guests and 0 Anonymous Users)
0 Members:

 



- Lo-Fi Version Support form
Copyrights and abuse reports form
Time is now: 6th July 2020 - 03:01:39