Welcome Guest ( Log In | Register )

> Releases Upload / Добавление релизов

Добавить релиз тут / Click here to add release
Рекомендованные обменники / Recommended file shares

> Shemhamforash - Entropy (2020), Blackened Death Metal
post Jun 30 2020, 11:40:46
Post #1

Правь статус, ####!111
**************
Group: Металариец
Posts: 22,266
Releases: 15420
From: Г.Харьков
On Forums: 8 years 1 month
Thanks: 281824 time(s)
Unknown


(IMG:https://metalarea.org/images/audiocovers/2020_Jun/acov_tid339444_thumb.jpg)

*Artist: Shemhamforash
*Album: Entropy
*Year: 2020
*Genre: Blackened Death Metal
*Country: Mexico (IMG:https://metalarea.org/forum/style_images/flags/Mexico.png)
*Format: mp3@CBR320kbps
*Size: 107MB

Tracklist:
01. Scepter of Demise (Intro)
02. Proclaiming the Throne of Enlil
03. The Chaos Ladder
04. Saturn's Might
05. Lord of Carnage
06. Desolation Rains
07. Heir of Emptiness
08. Light Abstinence
09. Gemini
******************************
Total playing time: 45:50




Extended info
Humberto López Drums (2012-present)
See also: Ambrotos, Greedy Capitalist, Heretic, Iatrogenia, ex-Extinción Cerebral, ex-Encounter, ex-Sunset of Winter
Alan Rodriguez Guitars (2012-present), Vocals (2015-present)
David Fajardo Guitars (2016-present)
See also: Greedy Capitalist
Neto Bass (2019-present)
See also: ex-Legión Kadath, ex-Ignis Atrum, ex-Discordia


Technical info
(IMG:https://metalarea.org/images/spectrogram/2020_Jun/09cd36c6615c940714f944fdce006351.png)
Input File: 04. Saturn's Might.mp3
Channels : 2
Sample Rate : 44100
Precision : 16-bit
Duration : 00:05:23.16 = 14251136 samples = 24236.6 CDDA sectors
File Size : 13.2M
Bit Rate : 328k
Sample Encoding: MPEG audio (layer I, II or III)
Comments :
Title=Saturn's Might
Artist=Shemhamforash
Album=Entropy
Tracknumber=4/9
Year=2020-20-20
Discnumber=1/1



Register


Go to the top of the page
  Insert nick Quick quote
+Quote Post
 
Start new topic
Replies (1 - 1)
post Jun 30 2020, 13:38:05
Post #2

Правь статус, ####!111
**************
Group: Металариец
Posts: 22,266
Releases: 15420
From: Г.Харьков
On Forums: 8 years 1 month
Thanks: 281824 time(s)
Unknown


Cloud Mail 320
Register


Go to the top of the page
  Insert nick Quick quote
+Quote Post

Reply to this topicStart new topic
2 User(s) are reading this topic (2 Guests and 0 Anonymous Users)
0 Members:

 



- Lo-Fi Version Support form
Copyrights and abuse reports form
Time is now: 6th July 2020 - 04:43:19