Welcome Guest ( Log In | Register )

> Releases Upload / Добавление релизов

Добавить релиз тут / Click here to add release
Рекомендованные обменники / Recommended file shares

 
Reply to this topicStart new topic
> Death Feast - The Feast Of Death (2018), Black/Thrash Metal
post Jun 30 2020, 12:04:01
Post #1

Правь статус, ####!111
**************
Group: Металариец
Posts: 22,266
Releases: 15420
From: Г.Харьков
On Forums: 8 years 1 month
Thanks: 281823 time(s)
Unknown


(IMG:https://metalarea.org/images/audiocovers/2020_Jun/acov_tid339445_thumb.jpg)

*Artist: Death Feast
*Album: The Feast Of Death
*Year: 2018
*Genre: Black/Thrash Metal
*Country: Portugal (IMG:https://metalarea.org/forum/style_images/flags/Portugal.png)
*Format: mp3@CBR320kbps
*Size: 109MB

Tracklist:
1. The Beginning of the End 02:01
2. Dealing with the Beast 04:18
3. My Inferno 04:13
4. Death Thrash Sinners 05:05
5. Children From Hell 04:26
6. The Feast of Death 02:43
7. Blood on the Ice 06:55
8. Call for the Wizard 04:02
9. Cold Winds Of Hate 04:09
10. War And Death 06:38
11. Time To Depart 01:02
******************************
Total playing time: 45:32




Extended info
Ângelo Bass
See also: Lost Kingdom, Nethermancy, Corpus Christii (live), Amphion, ex-PanzerFrost, ex-Velório, ex-Flagellum Dei (live), ex-Irae (live), ex-Morte Incandescente (live), ex-Onirik (live)
J.A. Guitars, Drums
See also: Alastor, Cunnilingus, Decayed, Hoth, Lost Kingdom, Nethermancy, Thugnor, Necrogore, ex-Hellfuck, ex-Mantiis, ex-Halrack
Nuno Lead Guitar
See also: ex-L.S.D., ex-Sacred Sin, ex-Thugnor
Jorge Divino Vocals
See also: Cunnilingus, Lost Kingdom, ex-Decayed


Technical info
(IMG:https://metalarea.org/images/spectrogram/2020_Jun/04a9113a1975e7ca052c7f137218c59d.png)
Input File: 05 Children from Hell.mp3
Channels : 2
Sample Rate : 44100
Precision : 16-bit
Duration : 00:04:26.41 = 11748725 samples = 19980.8 CDDA sectors
File Size : 11.2M
Bit Rate : 335k
Sample Encoding: MPEG audio (layer I, II or III)
Comments :
Title=Children from Hell
Artist=Death Feast
Album=The Feast of Death
Tracknumber=5/11
Year=2018-18-20
Genre=Rock
Discnumber=1/1



Register


Go to the top of the page
  Insert nick Quick quote
+Quote Post

Reply to this topicStart new topic
2 User(s) are reading this topic (2 Guests and 0 Anonymous Users)
0 Members:

 



- Lo-Fi Version Support form
Copyrights and abuse reports form
Time is now: 6th July 2020 - 03:31:22