Welcome Guest ( Log In | Register )

> Releases Upload / Добавление релизов

Добавить релиз тут / Click here to add release
Рекомендованные обменники / Recommended file shares

 
Reply to this topicStart new topic
> Basalt & Redemptus - Atlântico [split] (2017), Sludge/Post-Metal | Sludge/Post-Metal
post Jun 30 2020, 12:39:38
Post #1

Serial Uploader
Group Icon
Group: V.I.P
Posts: 37,203
Releases: 35386
From: Lithuania
On Forums: 12 years 4 weeks
Thanks: 421188 time(s)
Lithuania


(IMG:https://metalarea.org/images/audiocovers/2020_Jun/acov_tid339446_thumb.jpg)

*Artist: Basalt & Redemptus
*Album: Atlântico [split]
*Year: 2017
*Genre: Sludge/Post-Metal | Sludge/Post-Metal
*Country: Brazil (IMG:https://metalarea.org/forum/style_images/flags/Brazil.png) | Portugal (IMG:https://metalarea.org/forum/style_images/flags/Portugal.png)
*Format: mp3@CBR320kbps
*Size: 56MB

Tracklist:
Basalt:
01. Colapsus 04:45
02. Monólogo 06:47
Redemptus:
03. A Lot of Times, Later Never Comes 06:43
04. Walls of Emptiness 06:01
******************************
Total playing time: 24:16




(IMG:https://metalarea.org/images/youtube.png)

Technical info
(IMG:https://metalarea.org/images/spectrogram/2020_Jun/1a34708c04d037d30692f9465f8cd2c6.png)
Input File: 02. Monólogo.mp3
Channels : 2
Sample Rate : 44100
Precision : 16-bit
Duration : 00:06:47.43 = 17967575 samples = 30557.1 CDDA sectors
File Size : 16.4M
Bit Rate : 322k
Sample Encoding: MPEG audio (layer I, II or III)
Comments :
Title=Monólogo
Artist=Basalt
Album=Atlântico | Split CD​
Tracknumber=2
Year=2017



Register


Go to the top of the page
  Insert nick Quick quote
+Quote Post

Reply to this topicStart new topic
1 User(s) are reading this topic (1 Guests and 0 Anonymous Users)
0 Members:

 



- Lo-Fi Version Support form
Copyrights and abuse reports form
Time is now: 6th July 2020 - 10:31:21