Welcome Guest ( Log In | Register )

> Releases Upload / Добавление релизов

Добавить релиз тут / Click here to add release
Рекомендованные обменники / Recommended file shares

 
Reply to this topicStart new topic
> Charcuterie & Australopithecus - Charcuterie/Australopithecus [split] (2020), Goregrind | Goregrind (D4)
post Jun 30 2020, 13:04:50
Post #1

Serial Uploader
Group Icon
Group: V.I.P
Posts: 37,203
Releases: 35386
From: Lithuania
On Forums: 12 years 4 weeks
Thanks: 421183 time(s)
Lithuania


(IMG:https://metalarea.org/images/audiocovers/2020_Jun/acov_tid339447_thumb.jpg)

*Artist: Charcuterie & Australopithecus
*Album: Charcuterie/Australopithecus [split]
*Year: 2020
*Genre: Goregrind | Goregrind
*Country: United States (IMG:https://metalarea.org/forum/style_images/flags/United%20States.png) | United States (IMG:https://metalarea.org/forum/style_images/flags/United%20States.png)
*Format: mp3@CBR320kbps
*Size: 15MB

Tracklist:
Charcuterie:
01. Purulent Conjunctivitis 01:49
Australopithecus:
02. Bashed By A Bus 01:35
03. Whiplash 01:26
04. Rotten Reality 01:35
******************************
Total playing time: 6:25




(IMG:https://metalarea.org/images/youtube.png)

Technical info
(IMG:https://metalarea.org/images/spectrogram/2020_Jun/2445b60f630fe8cb29e7089b3b58db5c.png)
Input File: 01. Purulent Conjunctivitis.mp3
Channels : 2
Sample Rate : 44100
Precision : 16-bit
Duration : 00:01:49.77 = 4840945 samples = 8232.9 CDDA sectors
File Size : 4.56M
Bit Rate : 332k
Sample Encoding: MPEG audio (layer I, II or III)
Comments :
Title=Purulent Conjunctivitis
Artist=Charcuterie
Album=SPLIT W/ AUSTRALOPITHECUS
Tracknumber=1
Year=2020



Register


Thanks:
Go to the top of the page
  Insert nick Quick quote
+Quote Post

Reply to this topicStart new topic
1 User(s) are reading this topic (1 Guests and 0 Anonymous Users)
0 Members:

 



- Lo-Fi Version Support form
Copyrights and abuse reports form
Time is now: 6th July 2020 - 02:34:15