Welcome Guest ( Log In | Register )

> Releases Upload / Добавление релизов

Добавить релиз тут / Click here to add release
Рекомендованные обменники / Recommended file shares

> Torrefy - Life Is Bad (2020), Thrash Metal
post Jun 30 2020, 14:16:47
Post #1

Правь статус, ####!111
**************
Group: Металариец
Posts: 22,295
Releases: 15439
From: Г.Харьков
On Forums: 8 years 1 month
Thanks: 282423 time(s)
Unknown


(IMG:https://metalarea.org/images/audiocovers/2020_Jun/acov_tid339449_thumb.jpg)

*Artist: Torrefy
*Album: Life Is Bad
*Year: 2020
*Genre: Thrash Metal
*Country: Canada (IMG:https://metalarea.org/forum/style_images/flags/Canada.png)
*Format: mp3@CBR320kbps
*Size: 145MB

Tracklist:
1. Sarcophony 09:17
2. Eye of the Swarm 06:07
3. Outrun by Wolves 06:54
4. GFYD 04:54
5. Arborequiem 09:19
6. The Thin Line 06:30
7. Cells 07:30
8. Torn Apart by Machinery 07:44
9. Plague of Empires 05:55
******************************
Total playing time: 1:04:10




Extended info
Simon Smith Bass
Daniel Laughy Drums
Adam Henry Guitars (lead)
Ben Gerencser Guitars (rhythm)
John Ferguson Vocals



Technical info
(IMG:https://metalarea.org/images/spectrogram/2020_Jun/f57d77fbf8e97bb8d65f2aabfa11053c.png)
Input File: 03 Outrun by Wolves.mp3
Channels : 2
Sample Rate : 44100
Precision : 16-bit
Duration : 00:06:54.17 = 18265029 samples = 31063 CDDA sectors
File Size : 16.6M
Bit Rate : 320k
Sample Encoding: MPEG audio (layer I, II or III)
Comments :
Title=Outrun by Wolves
Artist=Torrefy
Album=Life Is Bad
Tracknumber=3
Year=2020
Genre=Metal



Register


Go to the top of the page
  Insert nick Quick quote
+Quote Post
 
Start new topic
Replies (1 - 1)
post Jul 1 2020, 10:48:19
Post #2

Девять Литров
*********
Group: Металариец
Posts: 900
Releases: 0
From: China
On Forums: 12 years 6 months
Thanks: 651 time(s)
Bulgaria


I don't know why I didn't enjoy this opus as much as the previous two.. it's a very similar, style, modern complex progressive thrash with echoes of their compatriots Vektor, but the compositions somehow don't gel together that well. There are strong moments, of course, but this delivery seems to be wearing thin... ambitious intricate works of metal have become commonplace nowadays.
Go to the top of the page
  Insert nick Quick quote
+Quote Post

Reply to this topicStart new topic
1 User(s) are reading this topic (1 Guests and 0 Anonymous Users)
0 Members:

 



- Lo-Fi Version Support form
Copyrights and abuse reports form
Time is now: 9th July 2020 - 08:41:14