Welcome Guest ( Log In | Register )

> Releases Upload / Добавление релизов

Добавить релиз тут / Click here to add release
Рекомендованные обменники / Recommended file shares

 
Reply to this topicStart new topic
> Bulletbelt - Warlords (2020), Black/Thrash Metal (D8)
post Jun 30 2020, 14:59:56
Post #1

Правь статус, ####!111
**************
Group: Металариец
Posts: 22,266
Releases: 15420
From: Г.Харьков
On Forums: 8 years 1 month
Thanks: 281880 time(s)
Unknown


(IMG:https://metalarea.org/images/audiocovers/2020_Jun/acov_tid339450_thumb.jpg)

*Artist: Bulletbelt
*Album: Warlords
*Year: 2020
*Genre: Black/Thrash Metal
*Country: New Zealand (IMG:https://metalarea.org/forum/style_images/flags/New%20Zealand.png)
*Format: mp3@CBR320kbps
*Size: 99MB

Tracklist:
1. Destroyer of All 00:54 instrumental
2. Impaler 04:46
3. Punishment of God 03:16
4. Herodian Kingdom 07:10
5. Blade on the Fire 04:57
6. Flames of Hell 04:37
7. Boudicia 05:45
8. Mutilate and Destroy 03:57
9. Warlord 04:30
******************************
Total playing time: 39:52




Extended info
Paul Roberts Vocals
Steve "Cleaver" Francis Drums
Tim Mekalick Bass
Josh OBrien Guitars


Technical info
(IMG:https://metalarea.org/images/spectrogram/2020_Jun/85f2cb39a8eca5d6547f32a3055dc3d1.png)
Input File: 04 Herodian Kingdom.mp3
Channels : 2
Sample Rate : 44100
Precision : 16-bit
Duration : 00:07:10.16 = 18969880 samples = 32261.7 CDDA sectors
File Size : 18.0M
Bit Rate : 335k
Sample Encoding: MPEG audio (layer I, II or III)
Comments :
Title=Herodian Kingdom
Artist=Bulletbelt
Album=Warlords
Tracknumber=4/9
Year=2020-20-20
Genre=Rock
Discnumber=1/1



Register


Go to the top of the page
  Insert nick Quick quote
+Quote Post

Reply to this topicStart new topic
1 User(s) are reading this topic (1 Guests and 0 Anonymous Users)
0 Members:

 



- Lo-Fi Version Support form
Copyrights and abuse reports form
Time is now: 6th July 2020 - 10:03:15