Welcome Guest ( Log In | Register )

> Releases Upload / Добавление релизов

Добавить релиз тут / Click here to add release
Рекомендованные обменники / Recommended file shares

 
Reply to this topicStart new topic
> Castigator - Impressions From The Abyss (2020), Death/Thrash Metal
post Jun 30 2020, 15:07:56
Post #1

Правь статус, ####!111
**************
Group: Металариец
Posts: 22,266
Releases: 15420
From: Г.Харьков
On Forums: 8 years 1 month
Thanks: 281852 time(s)
Unknown


(IMG:https://metalarea.org/images/audiocovers/2020_Jun/acov_tid339451_thumb.jpg)

*Artist: Castigator
*Album: Impressions From The Abyss
*Year: 2020
*Genre: Death/Thrash Metal
*Country: Germany (IMG:https://metalarea.org/forum/style_images/flags/Germany.png)
*Format: mp3@CBR320kbps
*Size: 110MB

Tracklist:
1. Last Thoughts
2. Baltic Tomb
3. Collective Carnage
4. Global Holocaust
5. Storm of Steel
6. Hand for a Bullet
7. Waco's Shame
8. Stench of Corpses
9. Hallowed Be Thy Name
******************************
Total playing time: 44:06




Extended info
Christian Bass, Vocals (2008-present)
See also: Dissecdead, Morbid Exhumation, ex-Remnant
Matze Drums (2008-present)
Simon Guitars (2012-present)
Sebastian Guitars (2014-present)
Tim Vocals (2016-present)
See also: Carnivore Crusher, Forward to Eden, Guthmensch, Through Chaos & Solitude



Technical info
(IMG:https://metalarea.org/images/spectrogram/2020_Jun/567ea953deedfd82f87cd4a915366d74.png)
Input File: 03 Collective Carnage.mp3
Channels : 2
Sample Rate : 44100
Precision : 16-bit
Duration : 00:04:02.27 = 10684195 samples = 18170.4 CDDA sectors
File Size : 10.7M
Bit Rate : 354k
Sample Encoding: MPEG audio (layer I, II or III)
Comments :
Title=Collective Carnage
Artist=Castigator
Album=Impressions from the Abyss
Tracknumber=3/9
Year=2020-20-20
Genre=Rock
Discnumber=1/1



Register


Go to the top of the page
  Insert nick Quick quote
+Quote Post

Reply to this topicStart new topic
1 User(s) are reading this topic (1 Guests and 0 Anonymous Users)
0 Members:

 



- Lo-Fi Version Support form
Copyrights and abuse reports form
Time is now: 6th July 2020 - 08:37:35