Welcome Guest ( Log In | Register )

 
Reply to this topicStart new topic
> Hellthrasher - En Tinieblas (2020), Old School Blackened Thrash/Speed Metal
post Jun 30 2020, 18:07:43
Post #1

Правь статус, ####!111
**************
Group: Металариец
Posts: 22,266
Releases: 15420
From: Г.Харьков
On Forums: 8 years 1 month
Thanks: 281882 time(s)
Unknown


(IMG:https://metalarea.org/images/audiocovers/2020_Jun/acov_tid339452_thumb.jpg)

*Artist: Hellthrasher
*Album: En Tinieblas
*Year: 2020
*Genre: Old School Blackened Thrash/Speed Metal
*Country: Peru (IMG:https://metalarea.org/forum/style_images/flags/Peru.png)
*Format: mp3@CBR320kbps
*Size: 74MB

Tracklist:
1. Intro 01:17 instrumental
2. Miserable 04:05
3. Himno Sepulcral 02:38 instrumental
4. Venganza y Muerte 03:03
5. Eterna Agonía 05:03
6. En Tinieblas 03:36
7. No Pares Este Rock 'n' Roll 03:20
8. Puños de Metal 03:49
9. Excusa Para Morir (Elektrash cover) 04:00
******************************
Total playing time: 30:51




Extended info
Ivan Anikiller Vocals, Guitars (2014-present)
See also: Anikiller
Renzo Demon Bass (2018-present)
See also: Anikiller
Miguel Skull Guitars (2018-present)
See also: Anikiller
Cris Thrashkill Vocals (2018-present)
Ricardo Hellhound Drums (2020-present)


Technical info
(IMG:https://metalarea.org/images/spectrogram/2020_Jun/4c8d7292bc5c4c20bc328be6b3e07fb2.png)
Input File: 05 Eterna Agonía.mp3
Channels : 2
Sample Rate : 44100
Precision : 16-bit
Duration : 00:05:04.08 = 13410016 samples = 22806.1 CDDA sectors
File Size : 12.7M
Bit Rate : 334k
Sample Encoding: MPEG audio (layer I, II or III)
Comments :
Title=Eterna Agonía
Artist=Hellthrasher Perú
Album=En Tinieblas
Tracknumber=5/9
Year=2020-20-20
Genre=Rock
Discnumber=1/1



Register


Go to the top of the page
  Insert nick Quick quote
+Quote Post

Reply to this topicStart new topic
1 User(s) are reading this topic (1 Guests and 0 Anonymous Users)
0 Members:

 



- Lo-Fi Version Support form
Copyrights and abuse reports form
Time is now: 6th July 2020 - 10:25:28