Welcome Guest ( Log In | Register )

> K.F.R - Nihilist (2020), Black Metal/Dark Ambient (D)
post Jun 30 2020, 18:29:49
Post #1

Правь статус, ####!111
**************
Group: Металариец
Posts: 2,919
Releases: 2614
From: Одесса
On Forums: 12 years 1 month
Thanks: 25108 time(s)
Ukraine


(IMG:http://metalarea.org/images/audiocovers/2020_Jun/acov_tid339453_thumb.jpg)

*Artist: K.F.R
*Album: Nihilist
*Year: 2020
*Genre: Black Metal/Dark Ambient
*Country: France (IMG:http://metalarea.org/forum/style_images/flags/France.png)
*Format: mp3@CBR320kbps
*Size: 141MB

Tracklist:
1. Ô Mastema 05:08
2. Lord of the Flies 07:40
3. Insect Boy 04:58
4. Mastema, Ruler of Larvae 05:14
5. Nihilist 06:02
6. Exil Métaphysique 07:03
7. I'm a Sick Painter 06:01
8. All I See Is You 09:39
9. It's Not Over Yet (The Rape of Sympony 7) 08:22
******************************
Total playing time: 1:00:07



Extended info
В ЛОУ


Technical info
(IMG:http://metalarea.org/images/spectrogram/2020_Jun/0a6461225c3f934541a682bb323b1424.png)
Input File: 03. Insect Boy.mp3
Channels : 2
Sample Rate : 44100
Precision : 16-bit
Duration : 00:04:57.08 = 13101404 samples = 22281.3 CDDA sectors
File Size : 11.9M
Bit Rate : 320k
Sample Encoding: MPEG audio (layer I, II or III)
Comments :
Title=Insect Boy
Artist=K.F.R
Album=Nihilist
Tracknumber=03
Year=2020
Genre=Black Metal/Dark Ambient



Register


Go to the top of the page
  Insert nick Quick quote
+Quote Post
 
Start new topic
Replies (1 - 2)
post Jul 1 2020, 10:27:50
Post #2

Правь статус, ####!111
**************
Group: Металариец
Posts: 46,725
Releases: 729
On Forums: 11 years 1 month
Thanks: 39352 time(s)
Russian Federation


Жду качества.
Go to the top of the page
  Insert nick Quick quote
+Quote Post
post Jul 1 2020, 17:17:07
Post #3

Три Литра
***
Group: Завсегдатай
Posts: 200
Releases: 20
From: Saint-Petersburg, Купчино
On Forums: 14 years 7 months
Thanks: 431 time(s)
Russian Federation


Лютая жуть, ждать такое в качестве - нафиг нафиг, лучше беречь уши ,в принципе, от подобного калоизвержения.
Go to the top of the page
  Insert nick Quick quote
+Quote Post

Reply to this topicStart new topic
1 User(s) are reading this topic (1 Guests and 0 Anonymous Users)
0 Members:

 



- Lo-Fi Version Support form
Copyrights and abuse reports form
Time is now: 3rd July 2020 - 13:49:14