Welcome Guest ( Log In | Register )

> Releases Upload / Добавление релизов

Добавить релиз тут / Click here to add release
Рекомендованные обменники / Recommended file shares

> Autopse - Insanity (2020), Thrash/Death Metal
post Jun 30 2020, 20:49:35
Post #1

Правь статус, ####!111
**************
Group: Металариец
Posts: 22,266
Releases: 15420
From: Г.Харьков
On Forums: 8 years 1 month
Thanks: 281867 time(s)
Unknown


(IMG:https://metalarea.org/images/audiocovers/2020_Jun/acov_tid339455_thumb.jpg)

*Artist: Autopse
*Album: Insanity
*Year: 2020
*Genre: Thrash/Death Metal
*Country: Brazil (IMG:https://metalarea.org/forum/style_images/flags/Brazil.png)
*Format: mp3@CBR320kbps
*Size: 65MB

Tracklist:
01. Insanity 01:19
02. Better off Dead 04:06
03. Fear and Death 03:40
04. Against Yourself 02:53
05. Conspiracy of Chaos 03:32
06. Raise the Head 02:22
07. Before the End 04:57
08. Rejecting the Manipulation 03:57
09. No Way Out 03:35
******************************
Total playing time: 30:21



Extended info
Daniela Serafim - Voz
Janaína Melo - Bateria
Raphael Felipe - Guitarra
Christian David - Baixo



Technical info
(IMG:https://metalarea.org/images/spectrogram/2020_Jun/db70d0423efb0e4d0961dfd1517b1ee6.png)
Input File: 07. Before the End.mp3
Channels : 2
Sample Rate : 44100
Precision : 16-bit
Duration : 00:04:57.03 = 13099067 samples = 22277.3 CDDA sectors
File Size : 12.0M
Bit Rate : 325k
Sample Encoding: MPEG audio (layer I, II or III)
Comments :
Title=Before the End
Artist=AutopseBr
Album=Insanity
Tracknumber=7/9
Year=2020
Genre=9
Discnumber=1/1



Register


Go to the top of the page
  Insert nick Quick quote
+Quote Post
 
Start new topic
Replies (1 - 5)
post Jul 1 2020, 18:24:52
Post #2

Group: Подсевший
Posts: 16
Releases: 0
On Forums: 1 month 3 weeks
Thanks: 2 time(s)
Portugal


is this new flac album possible? There is a previous one that is called Autopse> Mental uncontrolled (Descontrole Mental - Brazilian Portuguese) in flac. Thank you very much
Go to the top of the page
  Insert nick Quick quote
+Quote Post
post Jul 3 2020, 22:52:29
Post #3

Литр
*
Group: Подсевший
Posts: 76
Releases: 0
On Forums: 11 months 2 days
Thanks: 2 time(s)
Brazil


Where can we find their First album ?

https://www.metal-archives.com/albums/Autop...e_Mental/486260

Please help us out.
Go to the top of the page
  Insert nick Quick quote
+Quote Post
post Jul 3 2020, 23:03:08
Post #4

Литр
*
Group: Подсевший
Posts: 76
Releases: 0
On Forums: 11 months 2 days
Thanks: 2 time(s)
Brazil


Round it here

https://m.youtube.com/watch?v=aJeYfQ4B6_w
Go to the top of the page
  Insert nick Quick quote
+Quote Post
post Jul 4 2020, 14:10:36
Post #5

Group: Подсевший
Posts: 16
Releases: 0
On Forums: 1 month 3 weeks
Thanks: 2 time(s)
Portugal


I would also like to have the 1st album and the 2nd flac, if possible.
Go to the top of the page
  Insert nick Quick quote
+Quote Post
post Yesterday, 17:46:45
Post #6

Правь статус, ####!111
**************
Group: Металариец
Posts: 22,266
Releases: 15420
From: Г.Харьков
On Forums: 8 years 1 month
Thanks: 281867 time(s)
Unknown


FLAC (Tracks) 217 mb
Register
Go to the top of the page
  Insert nick Quick quote
+Quote Post

Reply to this topicStart new topic
1 User(s) are reading this topic (1 Guests and 0 Anonymous Users)
0 Members:

 



- Lo-Fi Version Support form
Copyrights and abuse reports form
Time is now: 6th July 2020 - 09:22:03