Welcome Guest ( Log In | Register )

> Releases Upload / Добавление релизов

Добавить релиз тут / Click here to add release
Рекомендованные обменники / Recommended file shares

> Black Altar & Kirkebrann - Deus Inversus [split] (2020), Black Metal | Black Metal (D)
post Jun 30 2020, 21:18:17
Post #1

Правь статус, ####!111
**************
Group: Металариец
Posts: 4,510
Releases: 1267
From: Brazil
On Forums: 8 years 5 months
Thanks: 47427 time(s)
Brazil


(IMG:http://metalarea.org/images/audiocovers/2020_Jun/acov_tid339456_thumb.jpg)

*Artist: Black Altar & Kirkebrann
*Album: Deus Inversus [split]
*Year: 2020
*Genre: Black Metal | Black Metal
*Country: Poland (IMG:http://metalarea.org/forum/style_images/flags/Poland.png) | Norway (IMG:http://metalarea.org/forum/style_images/flags/Norway.png)
*Format: mp3@CBR320kbps
*Size: 73MB

Tracklist:
Black Altar:
1. Deus Inversus 06:43
2. Ancient Warlust 05:45
3. Outro 02:13
Kirkebrann:
4. Begrensa Bevissthet 04:13
5. Faux Pas 04:07
6. Et Nederlag 05:40
7. Ufødte Klarhet 02:47
******************************
Total playing time: 31:28




Extended info
Odium Records

“Deus Inversus” includes 7 compositions, all new and exclusive to this release. For Black Altar's half, such esteemed musicians as Lars Broddesson (Funeral Mist, ex-Marduk), Mauser (ex-Vader), and Alexandros (Macabre Omen) took part in the recording session - led by Black Altar's founder Shadow.


Technical info
(IMG:http://metalarea.org/images/spectrogram/2020_Jun/aa026ab0d05540265c1954b387badc3e.png)
Input File: 1. Black Altar - Deus Inversus.mp3
Channels : 2
Sample Rate : 44100
Precision : 16-bit
Duration : 00:06:42.10 = 17732566 samples = 30157.4 CDDA sectors
File Size : 16.5M
Bit Rate : 328k
Sample Encoding: MPEG audio (layer I, II or III)
Comments :
Title=Deus Inversus
Artist=Black Altar
Album=Deus Inversus
Tracknumber=1
Year=2020
Genre=Black Metal



Register


Go to the top of the page
  Insert nick Quick quote
+Quote Post
 
Start new topic
Replies (1 - 4)
post Jul 1 2020, 05:29:57
Post #2

Правь статус, ####!111
**************
Group: Металариец
Posts: 4,510
Releases: 1267
From: Brazil
On Forums: 8 years 5 months
Thanks: 47427 time(s)
Brazil


Register

mp3@CBR320kbps


Go to the top of the page
  Insert nick Quick quote
+Quote Post
post Jul 1 2020, 19:40:44
Post #3

Only Death is Real
**********
Group: Металариец
Posts: 1,098
Releases: 0
From: R'lyeh
On Forums: 3 years 6 months
Thanks: 1204 time(s)
Poland


Black Altar was always a bit problematic to rate. Not only here... Shadow tries to play in the vein of Norway (both old and bands like Urgehal), Sweden (e.g. Marduk, Ondskapt) and Orthodox/Occult BM. Raw vocals, choirs, melodies, blast beats, some Death Metal and Industrial sound and dark ambient outros. Simply everything. Good, but lacks it's own soul... Kirkebrann is just a Norwegian band and that's all.
Go to the top of the page
  Insert nick Quick quote
+Quote Post
post Jul 2 2020, 08:44:06
Post #4

Четыре Литра
****
Group: Металариец
Posts: 308
Releases: 0
On Forums: 5 years 6 days
Thanks: 48 time(s)
Poland


Maybe he has multiple soul (IMG:style_emoticons/default/smile1.gif)
or perhaps his code-name hides information
Shadow - reflection of others :D
Go to the top of the page
  Insert nick Quick quote
+Quote Post
post Jul 2 2020, 19:52:46
Post #5

**************
Group: Металариец
Posts: 2,369
Releases: 14
From: Казань
On Forums: 10 years 9 months
Thanks: 3253 time(s)
Russian Federation


ну и шляпа... (IMG:style_emoticons/default/normal_Homerdisgust3s.png)


Go to the top of the page
  Insert nick Quick quote
+Quote Post

Reply to this topicStart new topic
1 User(s) are reading this topic (1 Guests and 0 Anonymous Users)
0 Members:

 



- Lo-Fi Version Support form
Copyrights and abuse reports form
Time is now: 6th July 2020 - 11:08:47