Welcome Guest ( Log In | Register )

> Releases Upload / Добавление релизов

Добавить релиз тут / Click here to add release
Рекомендованные обменники / Recommended file shares

> Somniate - The Meyrinkian Slumber (2020), Black Metal
post Jun 30 2020, 21:25:52
Post #1

Правь статус, ####!111
**************
Group: Металариец
Posts: 4,506
Releases: 1265
From: Brazil
On Forums: 8 years 5 months
Thanks: 47348 time(s)
Brazil


(IMG:http://metalarea.org/images/audiocovers/2020_Jun/acov_tid339457_thumb.jpg)

*Artist: Somniate
*Album: The Meyrinkian Slumber
*Year: 2020
*Genre: Black Metal
*Country: Czech Republic (IMG:http://metalarea.org/forum/style_images/flags/Czech%20Republic.png)
*Format: mp3@CBR320kbps
*Size: 74MB

Tracklist:
1. The Sleepless Stone 07:24
2. Rephaim 04:54
3. In Bone Incorruptible 06:20
4. A Penitentiary Triptych 06:44
5. Of Fragrance and Light 06:37
******************************
Total playing time: 31:59



Extended info
Lavadome Productions

"THE MEYRINKIAN SLUMBER" is a 5 track concept full-length album dealing with magical realism of Gustav Meyrink and his masterpiece novel "The Golem".

A tale of searching for the ascension through identity shifts, alchemical concepts and suffering, all set in a distorted Kafka-like vision of Prague.

Expect an elaborate, tenebrous ride through the shadows, beyond and above.



Dramatis Personæ:

Zdeněk Klekner • vocals
Marek Štembera • guitars, vocals
Aleš Vilingr • guitars
Adam Kulich • bass
Tomáš Mařík • drums


Mixed and mastered at the infamous BST Studio (Aosoth, The Order of Apollyon, Totalitarian etc.)

Preproduction and tracking engineered at HELLSOUND Studio by Jan Kapák.

Logo and entire coverart iconography by VIEW FROM THE COFFIN.


Technical info
(IMG:http://metalarea.org/images/spectrogram/2020_Jun/8001a6e7beb9f7e7ab94fe4f306551ed.png)
Input File: 02 Rephaim.mp3
Channels : 2
Sample Rate : 44100
Precision : 16-bit
Duration : 00:04:55.07 = 13012543 samples = 22130.2 CDDA sectors
File Size : 12.0M
Bit Rate : 324k
Sample Encoding: MPEG audio (layer I, II or III)
Comments :
Title=Rephaim
Artist=Somniate
Album=The Meyrinkian Slumber
Tracknumber=2
Year=2020
Genre=Black Metal



Register


Go to the top of the page
  Insert nick Quick quote
+Quote Post
 
Start new topic
Replies (1 - 3)
post Jul 1 2020, 05:51:17
Post #2

Правь статус, ####!111
**************
Group: Металариец
Posts: 4,506
Releases: 1265
From: Brazil
On Forums: 8 years 5 months
Thanks: 47348 time(s)
Brazil


Register

mp3@CBR320kbps


Thanks:
Go to the top of the page
  Insert nick Quick quote
+Quote Post
post Jul 1 2020, 14:00:48
Post #3

De Mysteriis Dom Sathanas
**************
Group: Металариец
Posts: 3,989
Releases: 63
From: Doom
On Forums: 11 years 11 months
Thanks: 3388 time(s)
Russian Federation


Опять треугольнички


Thanks:
Go to the top of the page
  Insert nick Quick quote
+Quote Post
post Jul 1 2020, 18:23:48
Post #4

Два Литра
**
Group: Завсегдатай
Posts: 138
Releases: 0
From: минск сити
On Forums: 11 years 6 days
Thanks: 36 time(s)
Belarus


Никогда о них не слышал. Очень достойный материал. Спасибо релизеру. (IMG:style_emoticons/default/9.gif)
Go to the top of the page
  Insert nick Quick quote
+Quote Post

Reply to this topicStart new topic
1 User(s) are reading this topic (1 Guests and 0 Anonymous Users)
0 Members:

 



- Lo-Fi Version Support form
Copyrights and abuse reports form
Time is now: 3rd July 2020 - 14:11:20