Welcome Guest ( Log In | Register )

> Bury Tomorrow - Cannibal (2020), Melodic Metalcore
post Jul 7 2020, 16:16:00
Post #1

Чёткий пацан из Автово...
Group Icon
Group: V.I.P
Posts: 9,081
Releases: 35
From: Город над вольной Невой...
On Forums: 14 years 3 months
Thanks: 4489 time(s)
Russian Federation


(IMG:http://metalarea.org/images/audiocovers/2020_Jul/acov_tid339635_thumb.jpg)

*Artist: Bury Tomorrow
*Album: Cannibal
*Year: 2020
*Genre: Melodic Metalcore
*Country: United Kingdom (IMG:http://metalarea.org/forum/style_images/flags/United%20Kingdom.png)
*Format: mp3@CBR320kbps
*Size: 97MB

Tracklist:
1. Choke 3:47
2. Cannibal 4:15
3. The Grey (VIXI) 3:58
4. Imposter 3:27
5. Better Below 3:12
6. The Agonist 4:02
7. Quake 4:25
8. Gods & Machines 4:05
9. Voice & Truth 3:06
10. Cold Sleep 3:39
11. Dark, Infinite 4:01
******************************
Total playing time: 41:57

(IMG:http://metalarea.org/images/youtube.png)
(IMG:http://metalarea.org/images/youtube.png)

Extended info
БОМБА!

Однозначно один из альбомов года. Да и не только в жанре! (IMG:style_emoticons/default/smile3.gif)
Британцы с каждым новым cd становятся всё лучше и лучше. И если я считал, что прошлый Black Flame был одним из эталонов мелодик металкора, то теперь, в 2020-ом, им становится Cannibal. Альбом, который точно останется в плейере надолго. Так же как и в 2019-ом камбек As I Lay Dying, последние Killswitch Engage и шикарные немцы Any Given Day!

Такой мужской металкор нам нужен! (IMG:style_emoticons/default/smile3.gif)

#всемрок на #радиовасилий


Technical info
(IMG:http://metalarea.org/images/spectrogram/2020_Jul/91d2e414c263d221502b071a4799148c.png)
Input File: 01 Choke.mp3
Channels : 2
Sample Rate : 44100
Precision : 16-bit
Duration : 00:03:47.52 = 10033456 samples = 17063.7 CDDA sectors
File Size : 9.10M
Bit Rate : 320k
Sample Encoding: MPEG audio (layer I, II or III)
Comments :
Title=Choke
Artist=Bury Tomorrow
Album=Cannibal
Tracknumber=01/11
Year=2020-20-20
Discnumber=1/1



Register


Go to the top of the page
  Insert nick Quick quote
+Quote Post
 
Start new topic
Replies (1 - 7)
post Jul 8 2020, 12:18:08
Post #2

Правь статус, ####!111
**************
Group: Металариец
Posts: 47,379
Releases: 742
On Forums: 11 years 3 months
Thanks: 40379 time(s)
Russian Federation


Несчастные, слушать металкор в 2020 (IMG:style_emoticons/default/15.gif)

Вась, жанр же этот крайне шаблонен и однообразен, ты еще не устал от него?


Thanks:
(1) Ghostb,
Go to the top of the page
  Insert nick Quick quote
+Quote Post
post Jul 8 2020, 14:22:18
Post #3

Чёткий пацан из Автово...
Group Icon
Group: V.I.P
Posts: 9,081
Releases: 35
From: Город над вольной Невой...
On Forums: 14 years 3 months
Thanks: 4489 time(s)
Russian Federation


ЦИТАТА(vosmidesijatye @ 8th July 2020 - 14:18:08) *
Вась, жанр же этот крайне шаблонен и однообразен, ты еще не устал от него?

Как будто я 24 на 7 слушаю только металкор (IMG:style_emoticons/default/15.gif)
Нет, не устал.
Особенно от таких дарований, как англичане(IMG:style_emoticons/default/smile3.gif)
Что главное в музыке? Чтобы она была честной и цепляла. Эта музыка честная (и даже взрослая (IMG:style_emoticons/default/smile3.gif) )и меня цепляет. Вот как бы и всё))
Будут какие-нибудь соплежуи, лет по 18, лабать кор-эмо-ля-ля-ля - наверное, не зацепит никак))
Go to the top of the page
  Insert nick Quick quote
+Quote Post
post Jul 8 2020, 14:49:55
Post #4

Четыре Литра
****
Group: Металариец
Posts: 379
Releases: 0
From: Лыткарино
On Forums: 1 year 4 months
Thanks: 89 time(s)
Russian Federation


Да, хороший альбом, выразительный. И вокал приятный, не "шеольные" эмо стоны.


Thanks:
Go to the top of the page
  Insert nick Quick quote
+Quote Post
post Jul 8 2020, 16:13:39
Post #5

Dark Ambient Shoujo
**********
Group: Металариец
Posts: 1,302
Releases: 2
On Forums: 11 years 8 months
Thanks: 751 time(s)
Russian Federation


ЦИТАТА(vosmidesijatye @ 8th July 2020 - 14:18:08) *
слушать металкор в 2020

Оценивать чужие вкусы в 2020.


Thanks:
(1) Metalass,
Go to the top of the page
  Insert nick Quick quote
+Quote Post
post Jul 8 2020, 18:32:31
Post #6

Group: Подсевший
Posts: 42
Releases: 4
From: Екб
On Forums: 12 years 7 months
Thanks: 86 time(s)
Russian Federation


ЦИТАТА(vosmidesijatye @ Jul 8 2020, 14:18:08) *
Несчастные, слушать металкор в 2020 (IMG:style_emoticons/default/15.gif)

Несчастные быть восьтидесятым в 2020


Go to the top of the page
  Insert nick Quick quote
+Quote Post
post Aug 1 2020, 12:18:42
Post #7

Ледоруб
**************
Group: Металариец
Posts: 26,644
Releases: 0
From: Санкт-Петербург
On Forums: 11 years 2 weeks
Thanks: 9437 time(s)
Russian Federation


ЦИТАТА(thanataur @ 8th July 2020 - 20:32:31) *
Несчастные быть восьтидесятым в 2020

Неплохо!
Go to the top of the page
  Insert nick Quick quote
+Quote Post
post Aug 1 2020, 13:54:57
Post #8

Ледоруб
**************
Group: Металариец
Posts: 26,644
Releases: 0
From: Санкт-Петербург
On Forums: 11 years 2 weeks
Thanks: 9437 time(s)
Russian Federation


ЦИТАТА(Bloodn Lord @ 7th July 2020 - 18:16:00) *
Choke

ЦИТАТА(Bloodn Lord @ 7th July 2020 - 18:16:00) *
The Agonist


(IMG:style_emoticons/default/20.gif)


Thanks:
Go to the top of the page
  Insert nick Quick quote
+Quote Post

Reply to this topicStart new topic
1 User(s) are reading this topic (1 Guests and 0 Anonymous Users)
0 Members:

 



- Lo-Fi Version Support form
Copyrights and abuse reports form
Time is now: 27th September 2020 - 02:23:35