Welcome Guest ( Log In | Register )

> Carnal Agony - Back From The Grave (2020), Heavy/Power Metal (D4)
post Jul 9 2020, 15:36:38
Post #1

Правь статус, ####!111
**************
Group: Металариец
Posts: 25,808
Releases: 18480
From: Г.Харьков
On Forums: 8 years 11 months
Thanks: 365088 time(s)
Unknown


(IMG:https://metalarea.org/images/audiocovers/2020_Jul/acov_tid339692_thumb.jpg)

*Artist: Carnal Agony
*Album: Back From The Grave
*Year: 2020
*Genre: Heavy/Power Metal
*Country: Sweden (IMG:https://metalarea.org/forum/style_images/flags/Sweden.png)
*Format: mp3@CBR320kbps
*Size: 107MB

Tracklist:
01. The Rebirth
02. Back from the Grave
03. The Cellardoor
04. The Witching Hour
05. Werewolf of Steel
06. Luna
07. For the Horde
08. Love Will Tear You Apart
09. Higher
10. The Nightmare Never Stops
11. Bane of the Light
12. Raise the Dead
13. The Ascension
******************************
Total playing time: 46:23


Preview 2

Extended info
Roger Andersson Drums (2011-2014), Bass (2014-present)
Mathias Wallin Guitars (2011-present)
David Johagen Vocals (lead) (2012-present)
Pär-Olof Persson Guitars (2013-present)



Technical info
(IMG:https://metalarea.org/images/spectrogram/2020_Jul/263ff389a3d50c51cfcda39094698556.png)
Input File: 04 - The Witching Hour.mp3
Channels : 2
Sample Rate : 44100
Precision : 16-bit
Duration : 00:04:45.49 = 12589889 samples = 21411.4 CDDA sectors
File Size : 11.5M
Bit Rate : 321k
Sample Encoding: MPEG audio (layer I, II or III)
Comments :
Title=The Witching Hour
Artist=Carnal Agony
Album=Back from the Grave
Tracknumber=4
Year=2020
Genre=Alternative / Indie Rock / Metal
Discnumber=1



Register


Go to the top of the page
  Insert nick Quick quote
+Quote Post
 
Start new topic
Replies (1 - 2)
post Jul 10 2020, 06:48:03
Post #2

Два Литра
**
Group: Завсегдатай
Posts: 151
Releases: 0
On Forums: 13 years 3 months
Thanks: 17 time(s)
Russian Federation


Love Will Tear You Apart - это же Poison, Alice Cooper
https://www.youtube.com/watch?v=Qq4j1LtCdww


Thanks:
Go to the top of the page
  Insert nick Quick quote
+Quote Post
post Jul 13 2020, 03:39:59
Post #3

Ъ
**************
Group: Металариец
Posts: 10,573
Releases: 9
On Forums: 12 years 3 months
Thanks: 2161 time(s)
Sweden


Третьесорт, вокал на любителя.
Go to the top of the page
  Insert nick Quick quote
+Quote Post

Reply to this topicStart new topic
2 User(s) are reading this topic (2 Guests and 0 Anonymous Users)
0 Members:

 



- Lo-Fi Version Support form
Copyrights and abuse reports form
Time is now: 21st April 2021 - 15:44:24