Welcome Guest ( Log In | Register )

> И неформату есть предел.

Рэп/хип-хоп/шансон/поп удаляются. Для них есть свои порталы.

> Desiderii Marginis - Departed (2020), Dark Ambient (D10)
post Jul 11 2020, 18:56:51
Post #1

Into the Nothing
***********
Group: Металариец
Posts: 1,891
Releases: 17
On Forums: 10 years 8 months
Thanks: 3915 time(s)
Russian Federation


(IMG:http://metalarea.org/images/audiocovers/2020_Jul/acov_tid339765_thumb.jpg)

*Artist: Desiderii Marginis
*Album: Departed
*Year: 2020
*Genre: Dark Ambient
*Country: Sweden (IMG:http://metalarea.org/forum/style_images/flags/Sweden.png)
*Format: mp3@CBR320kbps
*Size: 163MB

Tracklist:
1. Through A Forest Of Empty Armors 07:54
2. An Immense Hardened Shadow 05:48
3. The Silence Of A Thousand Years 07:12
4. Eternity Shuddred At The Image Of Death 08:10
5. What Death Whispers To The Dying 05:25
6. Departed 08:14
7. I Am Without Rule (Sum Sine Regno) 13:25
8. Deadbeat MMXIX 07:23
9. Worlds Apart MMXIX 07:00
******************************
Total playing time: 1:10:31



Extended info
On his now 10th full length album, Johan Levin offers us a slow, soaring meditation on mortality. The complete certainty of death, and how we cope with that knowledge is what constitues the essence of this new opus. "Departed" retains the sacral expression of its predecessor "Vita Arkivet", but not within the oppressive confinement of old stone vaults, but high across a raging seas, rocky shores and darkened skies. Music for gazing at the endless ocean of infinity, trying to catch a glimpse of meaning through the tiny rips in the fabric of existence; its magic and loss. The CD and Digital versions contain 3 bonus tracks, reworks of classic pieces "Deadbeat" and "Worlds Apart" and "I Am Without Rule (Sum Sine Regno)", recorded December 2018, and while sound wise it harks back to the "Vita Arkivet" album, thematically it is more akin to "Departed", lending it's title from the medieval mortality motif of "The Wheel of Fortune" which became very popular after the great plague.

CD Edition of 600 copies in 4 panels Digipak.
Special Edition LP of 100 copies on Gold and Black Splatter. Matt laminated Sleeve with printed inner sleeve. (Cyclic Law)


Technical info
(IMG:http://metalarea.org/images/spectrogram/2020_Jul/feb93833620413ca791b70ce4f993e32.png)
Input File: 02 An Immense Hardened Shadow.mp3
Channels : 2
Sample Rate : 44100
Precision : 16-bit
Duration : 00:05:48.21 = 15355973 samples = 26115.6 CDDA sectors
File Size : 14.3M
Bit Rate : 329k
Sample Encoding: MPEG audio (layer I, II or III)
Comments :
Title=An Immense Hardened Shadow
Artist=Desiderii Marginis
Album=Departed
Tracknumber=02
Year=2020-20-20
Genre=Electro



Register


Go to the top of the page
  Insert nick Quick quote
+Quote Post
 
Start new topic
Replies (1 - 3)
post Jul 13 2020, 09:23:00
Post #2

Dark Ambient Shoujo
**********
Group: Металариец
Posts: 1,289
Releases: 2
On Forums: 11 years 7 months
Thanks: 735 time(s)
Russian Federation


очень круто!
Go to the top of the page
  Insert nick Quick quote
+Quote Post
post Jul 13 2020, 09:29:11
Post #3

Четыре Литра
****
Group: Металариец
Posts: 382
Releases: 3
On Forums: 11 years 5 months
Thanks: 699 time(s)
Serbia


Anyone has the EP released this year?
Go to the top of the page
  Insert nick Quick quote
+Quote Post
post Jul 13 2020, 09:31:38
Post #4

Into the Nothing
***********
Group: Металариец
Posts: 1,891
Releases: 17
On Forums: 10 years 8 months
Thanks: 3915 time(s)
Russian Federation


ЦИТАТА(milosdjor @ Jul 13 2020, 11:29:11) *
Anyone has the EP released this year?

Yes. Maybe tomorrow...
Go to the top of the page
  Insert nick Quick quote
+Quote Post

Reply to this topicStart new topic
1 User(s) are reading this topic (1 Guests and 0 Anonymous Users)
0 Members:

 



- Lo-Fi Version Support form
Copyrights and abuse reports form
Time is now: 13th August 2020 - 12:07:43