Welcome Guest ( Log In | Register )

> И неформату есть предел.

Рэп/хип-хоп/шансон/поп удаляются. Для них есть свои порталы.

> Wędrowcy~Tułacze~Zbiegi - Berliner Vulkan [ep] (2020), Synthpop/Post-Punk/Zimna Fala
post Jul 13 2020, 13:44:19
Post #1

Trickster
Group Icon
Group: Moderation team
Posts: 4,056
Releases: 318
On Forums: 9 years 6 months
Thanks: 12351 time(s)
Russian Federation


(IMG:https://metalarea.org/images/audiocovers/2020_Jul/acov_tid339802_thumb.jpg)

*Artist: Wędrowcy~Tułacze~Zbiegi
*Album: Berliner Vulkan [ep]
*Year: 2020
*Genre: Synthpop/Post-Punk/Zimna Fala
*Country: Poland (IMG:https://metalarea.org/forum/style_images/flags/Poland.png)
*Format: mp3@CBR320kbps
*Size: 47MB

Tracklist:
1. I 04:06
2. II 03:24
3. III 05:19
4. IV 04:07
5. V 01:56
******************************
Total playing time: 18:52



Extended info
Personal purchase


Technical info
(IMG:https://metalarea.org/images/spectrogram/2020_Jul/b40c2dcb5c1792df8246e7b43beb6479.png)
Input File: wędrowcy~tułacze~zbiegi - Berliner Vulkan - 02 II.mp3
Channels : 2
Sample Rate : 44100
Precision : 16-bit
Duration : 00:03:24.94 = 9037898 samples = 15370.6 CDDA sectors
File Size : 8.33M
Bit Rate : 325k
Sample Encoding: MPEG audio (layer I, II or III)
Comments :
Title=II
Artist=wędrowcy~tułacze~zbiegi
Album=Berliner Vulkan
Tracknumber=2
Year=2020



Register


Go to the top of the page
  Insert nick Quick quote
+Quote Post
 
Start new topic
Replies (1 - 10)
post Jul 13 2020, 14:22:51
Post #2

Правь статус, ####!111
**************
Group: Металариец
Posts: 47,053
Releases: 732
On Forums: 11 years 2 months
Thanks: 39719 time(s)
Russian Federation


ЦИТАТА
Zimna Fala


Шо? (IMG:style_emoticons/default/17.gif)
Go to the top of the page
  Insert nick Quick quote
+Quote Post
post Jul 13 2020, 14:27:17
Post #3

Trickster
Group Icon
Group: Moderation team
Posts: 4,056
Releases: 318
On Forums: 9 years 6 months
Thanks: 12351 time(s)
Russian Federation


vosmidesijatye, колдвэйв такой польский


Go to the top of the page
  Insert nick Quick quote
+Quote Post
post Jul 13 2020, 15:51:52
Post #4

убивай меломанов
*********
Group: Металариец
Posts: 976
Releases: 6
On Forums: 9 years 11 months
Thanks: 1281 time(s)
Ukraine


dead lives matters


Thanks:
Go to the top of the page
  Insert nick Quick quote
+Quote Post
post Jul 13 2020, 16:27:57
Post #5

Group: Подсевший
Posts: 28
Releases: 11
On Forums: 4 years 10 months
Thanks: 194 time(s)
Russian Federation


Классно ! И пускай Sars продолжает творить что ему в голову придёт (IMG:style_emoticons/default/20.gif)


Thanks:
Go to the top of the page
  Insert nick Quick quote
+Quote Post
post Jul 13 2020, 17:50:47
Post #6

.
**************
Group: Металариец
Posts: 3,989
Releases: 0
On Forums: 4 years 6 months
Thanks: 2645 time(s)
Russian Federation


никогда их унылая шизофазия не нравилась, еще одни с приставкой синтивпопу.


Go to the top of the page
  Insert nick Quick quote
+Quote Post
post Jul 13 2020, 18:33:06
Post #7

кручу наждак
**************
Group: Металариец
Posts: 4,522
Releases: 102
From: Самара
On Forums: 10 years 3 months
Thanks: 3614 time(s)
Russian Federation


Прекрасно как всегда.
Go to the top of the page
  Insert nick Quick quote
+Quote Post
post Jul 13 2020, 18:34:42
Post #8

Trickster
Group Icon
Group: Moderation team
Posts: 4,056
Releases: 318
On Forums: 9 years 6 months
Thanks: 12351 time(s)
Russian Federation


judaz, (IMG:style_emoticons/default/dooo.gif)
Go to the top of the page
  Insert nick Quick quote
+Quote Post
post Jul 22 2020, 21:23:28
Post #9

http://rateyourmusic.com/~Ghostb
**************
Group: Металариец
Posts: 2,212
Releases: 0
From: Харьков
On Forums: 10 years 10 months
Thanks: 1036 time(s)
Ukraine


Мне понравился прошлогодний альбом этой группы с непроизносимым названием (IMG:style_emoticons/default/1488.gif) Надо и ипиху заценить.
Go to the top of the page
  Insert nick Quick quote
+Quote Post
post Jul 26 2020, 16:47:17
Post #10

Group: Подсевший
Posts: 11
Releases: 0
On Forums: 10 years 3 months
Thanks: 0 time(s)
Unknown


FLAC?

FLAC?
Go to the top of the page
  Insert nick Quick quote
+Quote Post
post Jul 27 2020, 20:32:14
Post #11

http://rateyourmusic.com/~Ghostb
**************
Group: Металариец
Posts: 2,212
Releases: 0
From: Харьков
On Forums: 10 years 10 months
Thanks: 1036 time(s)
Ukraine


Неплохо, но прошлый полноформат больше зацепил. Хотя, этот более синти-поповый такой, конечно.
Go to the top of the page
  Insert nick Quick quote
+Quote Post

Reply to this topicStart new topic
1 User(s) are reading this topic (1 Guests and 0 Anonymous Users)
0 Members:

 



- Lo-Fi Version Support form
Copyrights and abuse reports form
Time is now: 13th August 2020 - 12:55:42