Welcome Guest ( Log In | Register )

 
Reply to this topicStart new topic
> D-Ozz - Toxic Invasion [ep] (2020), Thrash Metal
post Jul 13 2020, 17:52:25
Post #1

Правь статус, ####!111
**************
Group: Металариец
Posts: 23,148
Releases: 16149
From: Г.Харьков
On Forums: 8 years 4 months
Thanks: 300518 time(s)
Unknown


(IMG:https://metalarea.org/images/audiocovers/2020_Jul/acov_tid339820_thumb.jpg)

*Artist: D-Ozz
*Album: Toxic Invasion [ep]
*Year: 2020
*Genre: Thrash Metal
*Country: Russian Federation (IMG:https://metalarea.org/forum/style_images/flags/Russian%20Federation.png)
*Format: mp3@CBR320kbps
*Size: 53MB

Tracklist:
01. Wild Oriental War 04:35
02. Do You Feel The Pain? 03:03
03. Toxic Invasion 04:10
04. Chains Of Zombification 04:10
05. The Thirst 03:15
06. Price Of Salvation 03:58
******************************
Total playing time: 23:11

Preview 1

Extended info
Dmitriy Mikhailov Drums (1995-present)
See also: ex-Трепанация
Anatoly Bulatov Guitars (1995-present)
See also: ex-Трепанация
Alexander Lotnik Bass (2010-present)
Alexander Shishkanov Guitars (2010-present)
Alex Tkachev Vocals (2011-present)
Oleg Sobolevsky Vocals (2016-present)
See also: Zindan, ex-Stalwart, ex-Frosted Glass


Technical info
(IMG:https://metalarea.org/images/spectrogram/2020_Jul/aae7ebf9fd00149d5e1f429c4404980f.png)
Input File: 03 - Toxic Invasion.mp3
Channels : 2
Sample Rate : 48000
Precision : 16-bit
Duration : 00:04:10.04 = 12002112 samples ~ 18753.3 CDDA sectors
File Size : 10.0M
Bit Rate : 320k
Sample Encoding: MPEG audio (layer I, II or III)
Comments :
Title=Toxic Invasion
Artist=D-Ozz
Album=Toxic Invasion
Tracknumber=3
Year=2020
Genre=Thrash Metal



Register


Go to the top of the page
  Insert nick Quick quote
+Quote Post

Reply to this topicStart new topic
2 User(s) are reading this topic (2 Guests and 0 Anonymous Users)
0 Members:

 



- Lo-Fi Version Support form
Copyrights and abuse reports form
Time is now: 20th September 2020 - 13:01:04