Welcome Guest ( Log In | Register )

> Dark Sarah - Grim (2020), Symphonic Metal (D4)
post Jul 14 2020, 13:46:12
Post #1

Правь статус, ####!111
**************
Group: Металариец
Posts: 28,174
Releases: 20563
From: Г.Харьков
On Forums: 9 years 6 months
Thanks: 418759 time(s)
Unknown


(IMG:https://metalarea.org/images/audiocovers/2020_Jul/acov_tid339828_thumb.jpg)

*Artist: Dark Sarah
*Album: Grim
*Year: 2020
*Genre: Symphonic Metal
*Country: Finland (IMG:https://metalarea.org/forum/style_images/flags/Finland.png)
*Format: mp3@CBR320kbps
*Size: 128MB

Tracklist:
1. My Name Is Luna 01:53
2. The Chosen One 05:22
3. Illuminate 04:09
4. Melancholia 06:28
5. Iceheart 03:06
6. La Folie Verte 05:05
7. The Wolf and the Maiden 04:12
8. The Hex 04:12
9. All Ears! 04:14
10. The Devil's Peak 05:11
11. Mörk 07:30
12. The Dark Throne 04:19
******************************
Total playing time: 55:41



Extended info
Heidi Parviainen Vocals (2012-present)
See also: ex-Agonia, ex-Amberian Dawn, ex-Iconofear
Rude Rothstén Bass (2014-present)
See also: Hammerhed, Stoner Kings
Sami-Petri Salonen Guitars (2014-present)
Erkka Korhonen Guitars (2014-present)
See also: Raskasta Joulua, ex-Ari Koivunen, Urban Tale
Thomas Tunkkari Drums (2015-present)
See also: ex-Anaktorian



Technical info
(IMG:https://metalarea.org/images/spectrogram/2020_Jul/9db47c5f67de16e31e72a1c414673a3f.png)
Input File: 04. Melancholia.mp3
Channels : 2
Sample Rate : 44100
Precision : 16-bit
Duration : 00:06:28.73 = 17142817 samples = 29154.5 CDDA sectors
File Size : 15.7M
Bit Rate : 322k
Sample Encoding: MPEG audio (layer I, II or III)
Comments :
Title=Melancholia
Artist=Dark Sarah
Album=Grim
Tracknumber=4/12
Year=2020
Genre=Heavy Metal



Register


Go to the top of the page
  Insert nick Quick quote
+Quote Post
 
Start new topic
Replies (1 - 6)
post Jul 15 2020, 08:06:35
Post #2

тебе 30, а ты все реверсами балуешься
**************
Group: Металариец
Posts: 2,110
Releases: 4
On Forums: 13 years 4 months
Thanks: 769 time(s)
Russian Federation


Вот это да, симфоник метал с тёткой на вокале, которая НЕ пытается в псевдооперу, а просто поёт.
Угадайте, что получилось - приятно и красиво (ВОТ ЭТО ПОВОРОТ).


Thanks:
Go to the top of the page
  Insert nick Quick quote
+Quote Post
post Jul 15 2020, 17:52:19
Post #3

Четыре Литра
****
Group: Металариец
Posts: 380
Releases: 2
On Forums: 9 years 6 months
Thanks: 155 time(s)
Russian Federation


Ну, скажем так, ничего оригинального и потрясающего в этой записи нет. Всё простенько, шаблонно, банально, есть и по сильнее коллективы. Название коллектива, порой, игрет важную роль, но Dark Sarah... кхм.
Go to the top of the page
  Insert nick Quick quote
+Quote Post
post Jul 16 2020, 12:43:22
Post #4

Шесть Литров
******
Group: Металариец
Posts: 598
Releases: 0
From: Москва
On Forums: 15 years 1 month
Thanks: 129 time(s)
Russian Federation


Материал по канонам жанра. Все сделано хорошо, но более одного раза слушать желания не возникло.
Go to the top of the page
  Insert nick Quick quote
+Quote Post
post Jul 17 2020, 09:39:57
Post #5

Маньяк
**********
Group: Металариец
Posts: 1,413
Releases: 5
From: Нью-Васюки
On Forums: 15 years 6 months
Thanks: 422 time(s)
Russian Federation


В роли темной Сары блондинка.


Thanks:
(1) Ghostb,
Go to the top of the page
  Insert nick Quick quote
+Quote Post
post Jul 20 2020, 07:47:09
Post #6

Ъ
**************
Group: Металариец
Posts: 10,885
Releases: 9
On Forums: 12 years 10 months
Thanks: 2199 time(s)
Sweden


Слишкой уж тонковатый голосок, мягко говоря на любителя.
Go to the top of the page
  Insert nick Quick quote
+Quote Post
post Aug 31 2020, 23:15:39
Post #7

Пять Литров
*****
Group: Металариец
Posts: 439
Releases: 0
On Forums: 13 years 4 months
Thanks: 88 time(s)
Russian Federation


Гы, в Amberian Dawn это как раз была превосходная псевдоопера от этой этой вокалистки. Зря от своего имиджа отказалась, классная была группа
Go to the top of the page
  Insert nick Quick quote
+Quote Post

Reply to this topicStart new topic
2 User(s) are reading this topic (2 Guests and 0 Anonymous Users)
0 Members:

 



- Lo-Fi Version Support form
Copyrights and abuse reports form
Time is now: 4th December 2021 - 12:25:06