Welcome Guest ( Log In | Register )

> LIK - Avgrundspoetens Flamma (2020), Occult Black Metal/Rock
post Jul 17 2020, 18:57:05
Post #1

Trickster
Group Icon
Group: Moderation team
Posts: 4,251
Releases: 318
On Forums: 9 years 8 months
Thanks: 12738 time(s)
Russian Federation


(IMG:https://metalarea.org/images/audiocovers/2020_Jul/acov_tid339925_thumb.jpg)

*Artist: LIK
*Album: Avgrundspoetens Flamma
*Year: 2020
*Genre: Occult Black Metal/Rock
*Country: Sweden (IMG:https://metalarea.org/forum/style_images/flags/Sweden.png)
*Format: mp3@CBR320kbps
*Size: 116MB

Tracklist:
1. Svartkonst 05:37
2. Avgrundspoetens Flamma 05:34
3. Helgedomens Dödsportar 05:55
4. Avliv 05:13
5. Kvävan 09:09
6. Dödsliv 05:56
7. Avtryck 11:45
******************************
Total playing time: 49:09



Extended info
Personal purchase

Raw Mix


Technical info
(IMG:https://metalarea.org/images/spectrogram/2020_Jul/85da47d57eaf1e87561c26ea7100be5c.png)
Input File: LIK - Avgrundpoetens flamma (Raw mix) - 03 Helgedomens Dödsportar.mp3
Channels : 2
Sample Rate : 44100
Precision : 16-bit
Duration : 00:05:56.04 = 15701452 samples = 26703.1 CDDA sectors
File Size : 14.3M
Bit Rate : 321k
Sample Encoding: MPEG audio (layer I, II or III)
Comments :
Title=Helgedomens Dödsportar
Artist=LIK
Album=Avgrundpoetens flamma (Raw mix)
Tracknumber=3
Year=2020



Register


Go to the top of the page
  Insert nick Quick quote
+Quote Post
2 Pages V  < 1 2  
Start new topic
Replies (30 - 35)
post Oct 17 2020, 19:35:58
Post #31

the faceless one
Group Icon
Group: S-moderation team
Posts: 9,360
Releases: 1928
On Forums: 12 years 2 months
Thanks: 116134 time(s)
Russian Federation


Имеется данный CD в фонотеке. При случае рипану.


Go to the top of the page
  Insert nick Quick quote
+Quote Post
post Oct 17 2020, 20:02:49
Post #32

Into the Nothing
***********
Group: Металариец
Posts: 1,927
Releases: 17
On Forums: 10 years 10 months
Thanks: 3975 time(s)
Russian Federation


Абигор, а кто издатель, Eisenwald? Хотелось бы физическую копию заиметь.
Go to the top of the page
  Insert nick Quick quote
+Quote Post
post Oct 17 2020, 20:34:24
Post #33

Forever Underground
**************
Group: Металариец
Posts: 7,514
Releases: 0
On Forums: 5 years 6 months
Thanks: 9824 time(s)
Unknown


https://www.discogs.com/LIK-Avgrundspoetens...elease/15995694
Darker Than Black Records


Thanks:
(1) Haunting,
Go to the top of the page
  Insert nick Quick quote
+Quote Post
post Oct 18 2020, 12:06:37
Post #34

the faceless one
Group Icon
Group: S-moderation team
Posts: 9,360
Releases: 1928
On Forums: 12 years 2 months
Thanks: 116134 time(s)
Russian Federation


CD-Rip 320 kbps [Lame 3.93.1 Stereo]
Register


Go to the top of the page
  Insert nick Quick quote
+Quote Post
post Oct 18 2020, 20:34:39
Post #35

Четыре Литра
****
Group: Металариец
Posts: 391
Releases: 4
On Forums: 11 years 7 months
Thanks: 735 time(s)
Serbia


The sound differs, but just a little bit, almost impossible to notice. Thanks anyway, I'll listen the CD rip henceforward until I get the CD.

Anyone have Graavehlder? Of all his recent releases, I enjoy that one the most actually.
Go to the top of the page
  Insert nick Quick quote
+Quote Post
post Oct 19 2020, 19:26:37
Post #36

the faceless one
Group Icon
Group: S-moderation team
Posts: 9,360
Releases: 1928
On Forums: 12 years 2 months
Thanks: 116134 time(s)
Russian Federation


ЦИТАТА(milosdjor @ Oct 18 2020, 22:34:39) *
Anyone have Graavehlder?

Есть и этот CD, но сделать рип получится не раньше выходных.


Go to the top of the page
  Insert nick Quick quote
+Quote Post

2 Pages V  < 1 2
Reply to this topicStart new topic
1 User(s) are reading this topic (1 Guests and 0 Anonymous Users)
0 Members:

 



- Lo-Fi Version Support form
Copyrights and abuse reports form
Time is now: 24th October 2020 - 00:58:57