Welcome Guest ( Log In | Register )

> Ascendency - Birth Of An Eternal Empire [ep] (2020), Black/Death Metal
post Jul 19 2020, 23:34:14
Post #1

Правь статус, ####!111
**************
Group: Металариец
Posts: 4,790
Releases: 1471
From: Brazil
On Forums: 9 years 2 months
Thanks: 54691 time(s)
Brazil


(IMG:http://metalarea.org/images/audiocovers/2020_Jul/acov_tid339990_thumb.jpg)

*Artist: Ascendency
*Album: Birth Of An Eternal Empire [ep]
*Year: 2020
*Genre: Black/Death Metal
*Country: Denmark (IMG:http://metalarea.org/forum/style_images/flags/Denmark.png)
*Format: mp3@CBR320kbps
*Size: 60MB

Tracklist:
1. Altered Beast 05:27
2. Culling the Weak 07:07
3. Tread the Path to Supreme Veneration 05:03
4. A Birth in Fire 08:00
******************************
Total playing time: 25:37



Extended info
IRON BONEHEAD PRODUCTIONS is proud to present the striking debut mini-album of Denmark's ASCENDENCY, Birth of an Eternal Empire, on CD and 12" vinyl formats.

Initially, ASCENDENCY started out as solo project, formed by the strong desire to ignite the black flame of death. Here in the cover of darkness, concepts and ideas were slowly formed and refined over a number of years, until the enlistment of a competent drummer took place, elevating the band to newer heights and gaining them prowess musically. The band then recorded and made two promotional tapes, before the lineup was completed by the recruitment of a second guitarist, increasing the strength and power of the band once more.

Birth of an Eternal Empire was recorded in May 2019 and has since gone through an extensive process, in the pursuit of a fitting and impactful sound which could showcase the raw energy of ASCENDENCY and leave its burning mark upon a sullied world. Consisting of four tracks, the 26-minute record chronicles the rise to power of an despotic tyrant and will be the first of a trilogy of short releases, with a continuous conceptual narrative, about the thirst for power and hegemony and the ultimate betrayal of ego and arrogance.

Musically, ASCENDENCY's attack comprises piercing guitars and thunderous bass, with monumental and melodic riffs tearing through an eternal battlefield, accompanied by visceral and commanding vocals that spew forth tales of fiery conquest and herald a new dark era. All this is meticulously completed by a relentless bombardment of drums, which underline the songs with pure rhythmic punishment and primitive force. Indeed, this is a Birth of an Eternal Empire!


Technical info
(IMG:http://metalarea.org/images/spectrogram/2020_Jul/c18b6be52597a9b6b748de59b2f0fc47.png)
Input File: 01 Altered Beast.mp3
Channels : 2
Sample Rate : 44100
Precision : 16-bit
Duration : 00:05:27.20 = 14429564 samples = 24540.1 CDDA sectors
File Size : 13.2M
Bit Rate : 322k
Sample Encoding: MPEG audio (layer I, II or III)
Comments :
Title=Altered Beast
Artist=Ascendency
Album= Birth of an Eternal Empire
Tracknumber=1
Year=2020



Register


Go to the top of the page
  Insert nick Quick quote
+Quote Post
 
Start new topic
Replies (1 - 3)
post Jul 21 2020, 19:00:46
Post #2

Правь статус, ####!111
**************
Group: Металариец
Posts: 4,790
Releases: 1471
From: Brazil
On Forums: 9 years 2 months
Thanks: 54691 time(s)
Brazil


Register

FLAC


Go to the top of the page
  Insert nick Quick quote
+Quote Post
post Aug 5 2020, 04:21:05
Post #3

Group: Подсевший
Posts: 17
Releases: 0
On Forums: 1 year 2 months
Thanks: 3 time(s)
Unknown


Awesome EP.
Go to the top of the page
  Insert nick Quick quote
+Quote Post
post Aug 20 2020, 19:46:41
Post #4

Шесть Литров
******
Group: Металариец
Posts: 608
Releases: 1
From: АР Крым, Симферополь
On Forums: 13 years 2 weeks
Thanks: 309 time(s)
Russian Federation


Вообще дикая МОООЩЬЬЬ!!! Риффаки местами просто улет.
Автор облоги кстати наш соотечественник, один мой знакомый - https://vk.com/grigoriev_art


Thanks:
Go to the top of the page
  Insert nick Quick quote
+Quote Post

Reply to this topicStart new topic
2 User(s) are reading this topic (2 Guests and 0 Anonymous Users)
0 Members:

 



- Lo-Fi Version Support form
Copyrights and abuse reports form
Time is now: 18th April 2021 - 00:30:27