Welcome Guest ( Log In | Register )

> Judicator - Let There Be Nothing (2020), Power Metal (D6)
post Jul 22 2020, 13:42:33
Post #1

Правь статус, ####!111
**************
Group: Металариец
Posts: 27,430
Releases: 19912
From: Г.Харьков
On Forums: 9 years 4 months
Thanks: 401579 time(s)
Unknown


(IMG:https://metalarea.org/images/audiocovers/2020_Jul/acov_tid340050_thumb.jpg)

*Artist: Judicator
*Album: Let There Be Nothing
*Year: 2020
*Genre: Power Metal
*Country: United States (IMG:https://metalarea.org/forum/style_images/flags/United%20States.png)
*Format: mp3@VBR194kbps
*Size: 80MB

Tracklist:
1. Let There Be Light 07:23
2. Tomorrow’s Sun 05:22
3. Strange to the World 08:19
4. Autumn of Souls 04:44
5. Gloria 05:44
6. Amber Dusk 09:19
7. The Way of a Pilgrim 08:00
8. Let There Be Nothing 08:54
******************************
Total playing time: 57:45




Extended info
Tony Cordisco Guitars, Songwriting
John Yelland Vocals, Lyrics
Jordan Elcess Drums
Michael Sanchez Bass, Guitars (lead)


Technical info
(IMG:https://metalarea.org/images/spectrogram/2020_Jul/fc160eda5d32d4a99a091bc260906858.png)
Input File: 05 Gloria.mp3
Channels : 2
Sample Rate : 44100
Precision : 16-bit
Duration : 00:05:57.12 = 15749080 samples = 26784.1 CDDA sectors
File Size : 8.74M
Bit Rate : 196k
Sample Encoding: MPEG audio (layer I, II or III)
Comments :
Title=Gloria
Artist=Judicator
Album=Let There Be Nothing
Tracknumber=5/8
Year=2020
Genre=Power Metal
Discnumber=1/1



Register


Go to the top of the page
  Insert nick Quick quote
+Quote Post
 
Start new topic
Replies (1 - 4)
post Jul 23 2020, 04:47:42
Post #2

Два Литра
**
Group: Завсегдатай
Posts: 107
Releases: 0
On Forums: 6 years 6 months
Thanks: 81 time(s)
Unknown


А что? cbr 192 теперь называется vbr 194? (IMG:style_emoticons/default/smile1.gif)


Thanks:
(1) Andrew,
Go to the top of the page
  Insert nick Quick quote
+Quote Post
post Jul 23 2020, 11:30:37
Post #3

Правь статус, ####!111
**************
Group: Металариец
Posts: 27,430
Releases: 19912
From: Г.Харьков
On Forums: 9 years 4 months
Thanks: 401579 time(s)
Unknown


Cloud Mail 320 137 mb
Register


Go to the top of the page
  Insert nick Quick quote
+Quote Post
post Jul 27 2020, 20:09:45
Post #4

Два Литра
**
Group: Завсегдатай
Posts: 190
Releases: 0
From: Odessa
On Forums: 13 years 8 months
Thanks: 43 time(s)
Ukraine


Хмм превью очень приятное, немного на BG смахивает, надо внимательно расслушать.
Go to the top of the page
  Insert nick Quick quote
+Quote Post
post Jul 27 2020, 20:51:38
Post #5

MDM-Thrash Metal
**************
Group: Металариец
Posts: 10,591
Releases: 1320
From: Одесса
On Forums: 14 years 1 month
Thanks: 31858 time(s)
Ukraine


Даже не сколько на BG - сколько на Demons & Wizards.


Thanks:
Go to the top of the page
  Insert nick Quick quote
+Quote Post

Reply to this topicStart new topic
2 User(s) are reading this topic (2 Guests and 0 Anonymous Users)
0 Members:

 



- Lo-Fi Version Support form
Copyrights and abuse reports form
Time is now: 25th September 2021 - 04:49:58