Welcome Guest ( Log In | Register )

> Red Moon Architect - Emptiness Weighs The Most (2020), Melodic Doom/Death Metal
post Jul 26 2020, 18:08:32
Post #1

Правь статус, ####!111
**************
Group: Металариец
Posts: 25,130
Releases: 17891
From: Г.Харьков
On Forums: 8 years 9 months
Thanks: 349585 time(s)
Unknown


(IMG:https://metalarea.org/images/audiocovers/2020_Jul/acov_tid340171_thumb.jpg)

*Artist: Red Moon Architect
*Album: Emptiness Weighs The Most
*Year: 2020
*Genre: Melodic Doom/Death Metal
*Country: Finland (IMG:https://metalarea.org/forum/style_images/flags/Finland.png)
*Format: mp3@CBR320kbps
*Size: 106MB

Tracklist:
1. Hidden 01:33
2. Chained 06:13
3. Rise 06:08
4. Dethrone the Darkness 04:29
5. One Shines Brighter 04:50
6. Muse 07:01
7. Into the Light 04:57
8. Reform 07:27
9. My Beloved 04:34
******************************
Total playing time: 47:12




Extended info
Saku Moilanen Bass (2011-2013), Drums, Keyboards (2011-present)
See also: Godflesh Deformed, ex-RoutaSielu, ex-Aeonian Sorrow, ex-Crimson Sun, ex-The Hypothesis
Jukka Jauhiainen Bass (2013-present)
See also: Aeonian Sorrow, Crimson Sun
Matias Moilanen Guitars (2013-present)
Anni Viljanen Vocals (female) (2013-present)
Ville Rutanen Vocals (2016-present)
See also: Aeonian Sorrow, ex-The Final Harvest, ex-Casket
Taneli Jämsä Guitars (2017-present)
See also: Aeonian Sorrow, Hukutus, Frosttide (live), Ghost Voyage


Technical info
(IMG:https://metalarea.org/images/spectrogram/2020_Jul/a00328872068d651b91cdb686bcdfe86.png)
Input File: 08 Reform.mp3
Channels : 2
Sample Rate : 44100
Precision : 16-bit
Duration : 00:07:27.43 = 19731487 samples = 33557 CDDA sectors
File Size : 17.9M
Bit Rate : 320k
Sample Encoding: MPEG audio (layer I, II or III)
Comments :
Title=Reform
Artist=Red Moon Architect
Album=Emptiness Weighs the Most
Tracknumber=8
Year=2020
Genre=Metal



Register


Go to the top of the page
  Insert nick Quick quote
+Quote Post
2 Pages V  < 1 2  
Start new topic
Replies (30 - 33)
post Sep 15 2020, 15:05:56
Post #31

Ледоруб
**************
Group: Металариец
Posts: 27,425
Releases: 0
From: Санкт-Петербург
On Forums: 11 years 5 months
Thanks: 9874 time(s)
Russian Federation


Ну так из дума во фьюнерал удачно вошли только Eye of Solitude.
Go to the top of the page
  Insert nick Quick quote
+Quote Post
post Sep 18 2020, 14:49:38
Post #32

Наливай!
**************
Group: Металариец
Posts: 5,955
Releases: 27
From: Москва-Бибирево
On Forums: 12 years 11 months
Thanks: 3056 time(s)
Russian Federation


Вокалист поющий в ладошки - не даёт шанса этому альбому.
Go to the top of the page
  Insert nick Quick quote
+Quote Post
post Oct 27 2020, 23:46:48
Post #33

Правь статус, ####!111
**************
Group: Металариец
Posts: 4,296
Releases: 17
From: Holland
On Forums: 14 years 7 months
Thanks: 1391 time(s)
Netherlands


Любят они клипы лепить:
Go to the top of the page
  Insert nick Quick quote
+Quote Post
post Feb 23 2021, 12:23:06
Post #34

Самый Тихий Час
**************
Group: Металариец
Posts: 6,347
Releases: 6
On Forums: 11 years 3 months
Thanks: 2949 time(s)
Unknown


Яко их после погребального предидущего заштормило обратно на поверхность. В принципе, то что группа пробует разные грани - хорошо. Слушается приятно. Вокалы оба по кайфу. Музыка монотонностью Clouds напоминает, только более динамична.. что то между ними и Дракониан.
В целом хороший, на 4ку альбом, коих в стиле в 2020м было не сказать что мало..
Не уверен посему, пока, что буду слушать, но шанс дам.
Go to the top of the page
  Insert nick Quick quote
+Quote Post

2 Pages V  < 1 2
Reply to this topicStart new topic
1 User(s) are reading this topic (1 Guests and 0 Anonymous Users)
0 Members:

 



- Lo-Fi Version Support form
Copyrights and abuse reports form
Time is now: 27th February 2021 - 16:05:33