Welcome Guest ( Log In | Register )

> Shezmu - À Travers Les Lambeaux (2020), Death Metal
post Jul 28 2020, 13:38:24
Post #1

Правь статус, ####!111
**************
Group: Металариец
Posts: 25,773
Releases: 18452
From: Г.Харьков
On Forums: 8 years 11 months
Thanks: 364200 time(s)
Unknown


(IMG:https://metalarea.org/images/audiocovers/2020_Jul/acov_tid340200_thumb.jpg)

*Artist: Shezmu
*Album: À Travers Les Lambeaux
*Year: 2020
*Genre: Death Metal
*Country: Canada (IMG:https://metalarea.org/forum/style_images/flags/Canada.png)
*Format: mp3@CBR320kbps
*Size: 73MB

Tracklist:
1. À travers les lambeaux 06:46
2. Cérémonie magique pour la bataille de Meggido 04:43
3. Ode à Hathor 03:25
4. Interlude - La rage 04:25
5. Les secrets des ziggourats 02:22
6. L'arrivée des temps déchus 02:38
7. Lex Talionis 07:57
******************************
Total playing time: 32:16




Extended info
C.B Vocals, Guitars
Marc-André Labonne Drums
Yannick Tremblay-Simard Bass



Technical info
(IMG:https://metalarea.org/images/spectrogram/2020_Jul/d19ef65b6866a3cdc917434e4eca4b38.png)
Input File: 04. La Rage.mp3
Channels : 2
Sample Rate : 44100
Precision : 16-bit
Duration : 00:00:00.26 = 11246 samples = 19.1259 CDDA sectors
File Size : 10.3M
Bit Rate : 323M
Sample Encoding: MPEG audio (layer I, II or III)
Comments :
Title=La Rage
Artist=Shezmu
Album=À Travers les Lambeaux
Tracknumber=4
Year=2020
Genre=Death Metal
Discnumber=1



Register


Go to the top of the page
  Insert nick Quick quote
+Quote Post
 
Start new topic
Replies (1 - 3)
post Jul 30 2020, 03:30:48
Post #2

Шесть Литров
******
Group: Металариец
Posts: 608
Releases: 1
From: АР Крым, Симферополь
On Forums: 13 years 2 weeks
Thanks: 309 time(s)
Russian Federation


А добротный такой релиз (дебютный полноформатник) канадцы выдали, качает нормально так, душевная приятная музыка! (IMG:style_emoticons/default/metaler.gif) (IMG:style_emoticons/default/20.gif)


Thanks:
Go to the top of the page
  Insert nick Quick quote
+Quote Post
post Jul 30 2020, 10:53:18
Post #3

Пять Литров
*****
Group: Металариец
Posts: 429
Releases: 0
On Forums: 3 years 3 months
Thanks: 77 time(s)
Unknown


Interesting, cheers!
Go to the top of the page
  Insert nick Quick quote
+Quote Post
post Aug 3 2020, 06:07:39
Post #4

кручу наждак
**************
Group: Металариец
Posts: 4,868
Releases: 103
From: Самара
On Forums: 10 years 11 months
Thanks: 3876 time(s)
Russian Federation


Неровный альбом.
Три первые песни скучноваты, зато после четвертой инструменталки три подряд бомбы.
Go to the top of the page
  Insert nick Quick quote
+Quote Post

Reply to this topicStart new topic
2 User(s) are reading this topic (2 Guests and 0 Anonymous Users)
0 Members:

 



- Lo-Fi Version Support form
Copyrights and abuse reports form
Time is now: 17th April 2021 - 23:50:12