Welcome Guest ( Log In | Register )

> Releases Upload / Добавление релизов

Добавить релиз тут / Click here to add release
Рекомендованные обменники / Recommended file shares

> Deathstorm - For Dread Shall Reign (2020), Old School Thrash Metal
post Jul 30 2020, 11:06:46
Post #1

Правь статус, ####!111
**************
Group: Металариец
Posts: 23,189
Releases: 16174
From: Г.Харьков
On Forums: 8 years 4 months
Thanks: 301272 time(s)
Unknown


(IMG:https://metalarea.org/images/audiocovers/2020_Jul/acov_tid340238_thumb.jpg)

*Artist: Deathstorm
*Album: For Dread Shall Reign
*Year: 2020
*Genre: Old School Thrash Metal
*Country: Austria (IMG:https://metalarea.org/forum/style_images/flags/Austria.png)
*Format: mp3@CBR320kbps
*Size: 91MB

Tracklist:
1. Unforgotten Wounds 03:25
2. Blades of Delusion 03:40
3. Bloodlusted 03:57
4. Ripping and Tearing 04:03
5. Sulphuric Scents 04:50
6. The Mourning 01:24
7. Funereal Depths 03:18
8. Toxic Devotion 04:53
9. Stygian Black 03:14
10. Human Individual Metamorphosis 05:29
******************************
Total playing time: 38:13




Extended info
Mac Bass, Vocals (2010-present)
See also: ex-Damage
Mani Drums (2010-present)
See also: ex-Damage
Ferl Guitars (2010-present)
See also: ex-Damage




Technical info
(IMG:https://metalarea.org/images/spectrogram/2020_Jul/049dadfdbd539b4470357c57e766f1ea.png)
Input File: 08 Toxic Devotion.mp3
Channels : 2
Sample Rate : 44100
Precision : 16-bit
Duration : 00:04:53.32 = 12935368 samples = 21998.9 CDDA sectors
File Size : 12.1M
Bit Rate : 329k
Sample Encoding: MPEG audio (layer I, II or III)
Comments :
Title=Toxic Devotion
Artist=Deathstorm
Album=For Dread Shall Reign
Tracknumber=8/10
Year=2020-20-20
Genre=Metal
Discnumber=1/1



Register


Go to the top of the page
  Insert nick Quick quote
+Quote Post
 
Start new topic
Replies (1 - 8)
post Jul 30 2020, 22:04:25
Post #2

hearer & reader
**************
Group: Металариец
Posts: 8,994
Releases: 157
From: Moscow
On Forums: 13 years 2 weeks
Thanks: 9486 time(s)
Russian Federation


Register


Go to the top of the page
  Insert nick Quick quote
+Quote Post
post Jul 31 2020, 07:49:04
Post #3

Четыре Литра
****
Group: Металариец
Posts: 302
Releases: 0
On Forums: 2 years 9 months
Thanks: 54 time(s)
Unknown


I like the sound of this, thanks for sharing!


Go to the top of the page
  Insert nick Quick quote
+Quote Post
post Jul 31 2020, 08:13:59
Post #4

Девять Литров
*********
Group: Металариец
Posts: 958
Releases: 0
From: Кирово-Чепецк
On Forums: 5 years 5 months
Thanks: 187 time(s)
Russian Federation


как то в скорости упали
Go to the top of the page
  Insert nick Quick quote
+Quote Post
post Jul 31 2020, 08:22:20
Post #5

Crush! Kill! Destroy!
**************
Group: Металариец
Posts: 5,481
Releases: 15
From: Kaliningrad
On Forums: 12 years 10 months
Thanks: 5167 time(s)
Russian Federation


ОлдОво, хорошо!


Go to the top of the page
  Insert nick Quick quote
+Quote Post
post Jul 31 2020, 09:42:07
Post #6

Dr.
**************
Group: Металариец
Posts: 5,326
Releases: 0
From: Primorye.ru
On Forums: 9 years 6 months
Thanks: 1101 time(s)
Russian Federation


Damn this is cool!!!


Thanks:
Go to the top of the page
  Insert nick Quick quote
+Quote Post
post Aug 1 2020, 08:03:06
Post #7

Шесть Литров
******
Group: Металариец
Posts: 634
Releases: 0
On Forums: 11 years 2 months
Thanks: 155 time(s)
Ukraine


ОТЛИЧНЫЙ пример классического мощного-скоростного не тупого трэшака,напоминают Sepultura,Destruction,Sadus,Sodom, и т.д -СУПЕР!!!!!спасибо большое за подгон!!!!


Thanks:
Go to the top of the page
  Insert nick Quick quote
+Quote Post
post Aug 1 2020, 12:24:20
Post #8

Пять Литров
*****
Group: Металариец
Posts: 420
Releases: 0
From: германия
On Forums: 11 years 9 months
Thanks: 159 time(s)
Russian Federation


Отлично играют!


Thanks:
Go to the top of the page
  Insert nick Quick quote
+Quote Post
post Aug 1 2020, 13:58:51
Post #9

И Ван Дамм По Делам Вашим!
**************
Group: Металариец
Posts: 19,474
Releases: 26
On Forums: 12 years 2 months
Thanks: 10869 time(s)
Honduras


ЦИТАТА(assonik @ Jul 31 2020, 10:13:59) *
как то в скорости упали



ЦИТАТА(Витон @ Aug 1 2020, 10:03:06) *
ОТЛИЧНЫЙ пример классического мощного-скоростного трэшака,

Интересно..... (IMG:style_emoticons/default/1488.gif)
Go to the top of the page
  Insert nick Quick quote
+Quote Post

Reply to this topicStart new topic
1 User(s) are reading this topic (1 Guests and 0 Anonymous Users)
0 Members:

 



- Lo-Fi Version Support form
Copyrights and abuse reports form
Time is now: 23rd September 2020 - 05:22:36