Welcome Guest ( Log In | Register )

> Alcatrazz - Born Innocent (2020), Heavy Metal/Shred (D10)
post Jul 30 2020, 12:50:40
Post #1

Serial Uploader
Group Icon
Group: V.I.P
Posts: 37,532
Releases: 35706
From: Lithuania
On Forums: 12 years 8 months
Thanks: 431036 time(s)
Lithuania


(IMG:https://metalarea.org/images/audiocovers/2020_Jul/acov_tid340247_thumb.jpg)

*Artist: Alcatrazz
*Album: Born Innocent
*Year: 2020
*Genre: Heavy Metal/Shred
*Country: United States (IMG:https://metalarea.org/forum/style_images/flags/United%20States.png)
*Format: mp3@CBR320kbps
*Size: 132MB

Tracklist:
01. Born Innocent 03:06
02. Polar Bear 04:35
03. Finn McCool 04:21
04. We Still Remember 04:02
05. London 1666 04:59
06. Dirty like the City 03:48
07. I Am the King 05:29
08. Something That I Am Missing 04:36
09. Paper Flags 04:00
10. The Wound Is Open 03:48
11. Body Beautiful 04:59
12. Warth Lane 06:15
13. For Tony 03:59
******************************
Total playing time: 57:57

(IMG:https://metalarea.org/images/myspace.png)

(IMG:https://metalarea.org/images/youtube.png)

Technical info
(IMG:https://metalarea.org/images/spectrogram/2020_Jul/d1faf4dea7747ade09444ac83aec6289.png)
Input File: 2. Polar Bear.mp3
Channels : 2
Sample Rate : 44100
Precision : 16-bit
Duration : 00:04:35.01 = 12127765 samples = 20625.5 CDDA sectors
File Size : 11.0M
Bit Rate : 320k
Sample Encoding: MPEG audio (layer I, II or III)
Comments :
Title=Polar Bear
Artist=Alcatrazz
Album=Born Innocent
Tracknumber=02
Year=2020-20-20
Discnumber=1



Register


Go to the top of the page
  Insert nick Quick quote
+Quote Post
 
Start new topic
Replies (1 - 6)
post Jul 31 2020, 00:01:14
Post #2

hearer & reader
**************
Group: Металариец
Posts: 9,464
Releases: 169
From: Moscow
On Forums: 13 years 5 months
Thanks: 10343 time(s)
Russian Federation


Register


Go to the top of the page
  Insert nick Quick quote
+Quote Post
post Jul 31 2020, 12:00:51
Post #3

Правь статус, ####!111
**************
Group: Металариец
Posts: 48,254
Releases: 776
On Forums: 11 years 8 months
Thanks: 41977 time(s)
Russian Federation


Без Мальма эта группа не нужна.
Go to the top of the page
  Insert nick Quick quote
+Quote Post
post Jul 31 2020, 15:21:02
Post #4

:3
**************
Group: Металариец
Posts: 4,669
Releases: 103
From: Novosibirsk
On Forums: 13 years 5 months
Thanks: 3791 time(s)
Russian Federation


Стамп Мальмстина дерет так, что порой и не заметишь разницы (IMG:style_emoticons/default/1488.gif)
Go to the top of the page
  Insert nick Quick quote
+Quote Post
post Jul 31 2020, 15:26:22
Post #5

Правь статус, ####!111
**************
Group: Металариец
Posts: 48,254
Releases: 776
On Forums: 11 years 8 months
Thanks: 41977 time(s)
Russian Federation


ЦИТАТА(Shub @ Jul 31 2020, 17:21:02) *
Стамп Мальмстина дерет так, что порой и не заметишь разницы (IMG:style_emoticons/default/1488.gif)


И играет он чище, техничнее и быстрее шведа (эт он еще в конце 90-х заявил). (IMG:style_emoticons/default/bye.gif)

Уровня первых работ тюряшки не жду, но так уж и быть включу авось чутка поднимут настроение.
Go to the top of the page
  Insert nick Quick quote
+Quote Post
post Jul 31 2020, 20:37:14
Post #6

melofags sniper
**************
Group: Металариец
Posts: 6,037
Releases: 0
On Forums: 12 years 11 months
Thanks: 6368 time(s)
Unknown


Graham Bonnet is not at the level anymore,


Thanks:
Go to the top of the page
  Insert nick Quick quote
+Quote Post
post Feb 23 2021, 16:50:28
Post #7

Правь статус, ####!111
**************
Group: Металариец
Posts: 48,254
Releases: 776
On Forums: 11 years 8 months
Thanks: 41977 time(s)
Russian Federation


ЦИТАТА(babanguida @ Jul 31 2020, 23:37:14) *
Graham Bonnet is not at the level anymore,


Completely agree, but don`t forget that he`s in his 70`s and the fact that he still performs deserves admiration.

Regardless Bonnet`s voice condition, there`s 2 good songs like headbanging London, and japanese bonus - Darkness that is truly great.

Salute to vets! (IMG:style_emoticons/default/9.gif) (IMG:style_emoticons/default/pray.gif)

Go to the top of the page
  Insert nick Quick quote
+Quote Post

Reply to this topicStart new topic
2 User(s) are reading this topic (2 Guests and 0 Anonymous Users)
0 Members:

 



- Lo-Fi Version Support form
Copyrights and abuse reports form
Time is now: 27th February 2021 - 16:47:03